Скамейка запасных / The Benchwarmers (Деннис Дуган / Dennis Dugan) [2006, США, Комедия, спорт, BDRip-AVC] MVO + Sub Eng + Original Eng

 
Автор Сообщение

TorrentFilm ®

Пол:

Стаж: 2 года

Сообщений: 7741



Награды: Нет

Торрент-статистика

Создавать темы 26-Авг-2015 00:06

[Цитировать]

Скамейка запасныхThe Benchwarmers«3 переростка должны уделать команду 9-ти летних...справятся?»

Страна: США
Жанр: Комедия, спорт
Год выпуска: 2006
Продолжительность: 01:25:10
Перевод: Профессиональный (многоголосый закадровый) BD
Cубтитры: английские
Оригинальная аудиодорожка: английский
Режиссер: Деннис Дуган / Dennis Dugan
В ролях: Роб Шнайдер, Дэвид Спейд, Джон Хидер, Джон Ловиц, Крэйг Килборн, Молли Симс, Тим Медоуз, Ник Свардсон, Эринн Бартлетт, Амори Ноласко
Описание: У Гаса, Ричи и Кларка большие проблемы с балансом желаний и возможностей. Они упёртые фанаты бейсбола и мечтают играть сами, однако злая судьба наделила их такой фантастической неуклюжестью и косорукостью, что спортивная карьера для них кажется абсолютно невозможной. Впрочем, если бог не дал им таланта, это не значит, что он обделил их упорством, смекалкой и толикой везения.
И вот друзья организовывают собственную команду, дабы попробовать пробиться хотя бы в Малую лигу. Это их единственный шанс выбраться со скамейки запасных - и как бы цели героев не расходились с их талантами, парни не намерены его упускать! Что же, раз в сто лет и палка стреляет, а записные неудачники получают шанс посрамить профи, пожалуй, всё же чаще. И, кажется, такой момент как раз наступил!..
Доп. информация:
Релиз группы:
Качество видео: BDRip-AVC | Скамейка запасных / The Benchwarmers (2006) 1080p BD-Remux| HD club
Формат видео: MKV
Видео: 1104x598 (1,85:1), 23,976 fps, 4382 Кbps, 0.277 bit/pixe
Аудио: 48 kHz, AC3 Dolby Digital, 3/2 (L,C,R,l,r) + LFE ch, ~384.00 kbps avg MVO
Аудио 2: 48 kHz, AC3 Dolby Digital, 3/2 (L,C,R,l,r) + LFE ch, ~448.00 kbps avg ENG
Формат субтитров: softsub (SRT)

MediaInfo

Общее
Уникальный идентификатор : 179333649289599254460992848687260697077 (0x86EA678EA4948C31A6BF1396715301F5)
Полное имя : E:\Мои рипы\Скамейка запасных\The Benchwarmers by_IVAN@190282.mkv
Формат : Matroska
Версия формата : Version 4 / Version 2
Размер файла : 3,16 Гбайт
Продолжительность : 1 ч. 25 м.
Общий поток : 5320 Кбит/сек
Название фильма : The Benchwarmers by_IVAN@190282
Дата кодирования : UTC 2015-08-18 23:42:05
Программа кодирования : mkvmerge v8.2.0 ('World of Adventure') 64bit
Библиотека кодирования : libebml v1.3.1 + libmatroska v1.4.2
Attachements : 230060.jpg
DURATION : 01:22:59.563000000
NUMBER_OF_FRAMES : 2313
NUMBER_OF_BYTES : 62044
_STATISTICS_WRITING_APP : mkvmerge v8.2.0 ('World of Adventure') 64bit
_STATISTICS_WRITING_DATE_UTC : 2015-08-18 23:42:05
_STATISTICS_TAGS : BPS DURATION NUMBER_OF_FRAMES NUMBER_OF_BYTES
Видео
Идентификатор : 1
Формат : AVC
Формат/Информация : Advanced Video Codec
Профиль формата : High@L4.1
Параметр CABAC формата : Да
Параметр ReFrames формата : 12 кадров
Идентификатор кодека : V_MPEG4/ISO/AVC
Продолжительность : 1 ч. 25 м.
Битрейт : 4382 Кбит/сек
Ширина : 1104 пикселя
Высота : 598 пикселей
Соотношение сторон : 1,85:1
Режим частоты кадров : Постоянный
Частота кадров : 23,976 кадра/сек
Цветовое пространство : YUV
Субдискретизация насыщенности : 4:2:0
Битовая глубина : 8 бит
Тип развёртки : Прогрессивная
Бит/(Пиксели*Кадры) : 0.277
Размер потока : 2,61 Гбайт (82%)
Заголовок : The Benchwarmers by_IVAN@190282
Библиотека кодирования : x264 core 148 r2579kMod 73ae2d1
Настройки программы : cabac=1 / ref=12 / deblock=1:-3:-3 / analyse=0x3:0x133 / me=umh / subme=11 / psy=1 / fade_compensate=0.00 / psy_rd=1.00:0.05 / mixed_ref=1 / me_range=48 / chroma_me=1 / trellis=2 / 8x8dct=1 / cqm=0 / deadzone=21,11 / fast_pskip=0 / chroma_qp_offset=-3 / threads=6 / lookahead_threads=6 / sliced_threads=0 / nr=0 / decimate=1 / interlaced=0 / bluray_compat=0 / constrained_intra=0 / fgo=0 / bframes=16 / b_pyramid=2 / b_adapt=2 / b_bias=0 / direct=3 / weightb=1 / open_gop=0 / weightp=2 / keyint=240 / keyint_min=23 / scenecut=40 / intra_refresh=0 / rc_lookahead=60 / rc=crf / mbtree=0 / crf=18.2000 / qcomp=0.60 / qpmin=0 / qpmax=69 / qpstep=4 / vbv_maxrate=50000 / vbv_bufsize=62500 / crf_max=0.0 / nal_hrd=none / filler=0 / ip_ratio=1.40 / pb_ratio=1.30 / aq=2:1.10
Язык : English
Default : Да
Forced : Нет
Цветовой диапазон : Limited
Основные цвета : BT.709
Характеристики трансфера : BT.709
Коэффициенты матрицы : BT.709
DURATION : 01:25:10.105000000
NUMBER_OF_FRAMES : 122520
NUMBER_OF_BYTES : 2864967424
_STATISTICS_WRITING_APP : mkvmerge v8.2.0 ('World of Adventure') 64bit
_STATISTICS_WRITING_DATE_UTC : 2015-08-18 23:42:05
_STATISTICS_TAGS : BPS DURATION NUMBER_OF_FRAMES NUMBER_OF_BYTES
Аудио #1
Идентификатор : 2
Формат : AC-3
Формат/Информация : Audio Coding 3
Расширение режима : CM (complete main)
Параметр Endianness формата : Big
Идентификатор кодека : A_AC3
Продолжительность : 1 ч. 25 м.
Вид битрейта : Постоянный
Битрейт : 384 Кбит/сек
Каналы : 6 каналов
Расположение каналов : Front: L C R, Side: L R, LFE
Частота : 48,0 КГц
Метод сжатия : С потерями
Размер потока : 234 Мбайт (7%)
Заголовок : Mvo
Язык : Russian
Default : Да
Forced : Нет
Аудио #2
Идентификатор : 3
Формат : AC-3
Формат/Информация : Audio Coding 3
Расширение режима : CM (complete main)
Параметр Endianness формата : Big
Идентификатор кодека : A_AC3
Продолжительность : 1 ч. 25 м.
Вид битрейта : Постоянный
Битрейт : 448 Кбит/сек
Каналы : 6 каналов
Расположение каналов : Front: L C R, Side: L R, LFE
Частота : 48,0 КГц
Метод сжатия : С потерями
Размер потока : 273 Мбайт (8%)
Заголовок : Eng
Язык : English
Default : Нет
Forced : Нет
Текст #1
Идентификатор : 4
Формат : UTF-8
Идентификатор кодека : S_TEXT/UTF8
Идентификатор кодека/Информация : UTF-8 Plain Text
Заголовок : Eng
Язык : English
Default : Нет
Forced : Нет
Текст #2
Идентификатор : 5
Формат : UTF-8
Идентификатор кодека : S_TEXT/UTF8
Идентификатор кодека/Информация : UTF-8 Plain Text
Заголовок : Eng SDH
Язык : English
Default : Нет
Forced : Нет
Меню
00:00:00.000 : en:Chapter 1
00:07:33.411 : en:Chapter 2
00:12:00.302 : en:Chapter 3
00:12:59.445 : en:Chapter 4
00:15:55.370 : en:Chapter 5
00:20:56.922 : en:Chapter 6
00:23:15.434 : en:Chapter 7
00:25:52.675 : en:Chapter 8
00:29:59.255 : en:Chapter 9
00:38:14.041 : en:Chapter 10
00:46:43.842 : en:Chapter 11
00:49:46.315 : en:Chapter 12
00:53:19.528 : en:Chapter 13
00:55:10.222 : en:Chapter 14
00:58:07.858 : en:Chapter 15
01:08:42.326 : en:Chapter 16
01:12:22.337 : en:Chapter 17
01:15:45.707 : en:Chapter 18
01:19:10.162 : en:Chapter 19
01:22:46.836 : en:Chapter 20

x264 log

x264 [info]: frame I:1367 Avg QP:19.00 size:108153 PSNR Mean Y:44.28 U:47.75 V:48.82 Avg:45.24 Global:44.35
x264 [info]: frame P:27230 Avg QP:20.16 size: 44530 PSNR Mean Y:43.17 U:47.03 V:48.20 Avg:44.18 Global:43.07
x264 [info]: frame B:93923 Avg QP:21.94 size: 16019 PSNR Mean Y:42.58 U:46.91 V:48.29 Avg:43.66 Global:42.19
x264 [info]: consecutive B-frames: 3.0% 3.6% 8.8% 18.1% 18.3% 36.2% 4.9% 1.7% 1.6% 1.1% 0.8% 0.5% 0.3% 0.3% 0.3% 0.1% 0.6%
x264 [total]: encoded 122520 frames, 5.45 fps, 4485.18 kb/s, duration 6:14:53.52

Скриншот c названием фильма

Скриншоты

Убедительная просьба пожалуйста кто скачал не бросайте раздачу!!!
[Профиль] [ЛС]
Показать сообщения:    

Текущее время: Сегодня 08:13

Часовой пояс: GMT



Вы не можете начинать темы
Вы не можете отвечать на сообщения
Вы не можете редактировать свои сообщения
Вы не можете удалять свои сообщения
Вы не можете голосовать в опросах
Вы не можете прикреплять файлы к сообщениям
Вы не можете скачивать файлы