Скалолаз / Cliffhanger (1993) BDRip-AVC от 0ptimus | P, P2, A | US Transfer

 
Автор Сообщение

Russian Mafia ®

Пол:

Стаж: 1 год 8 месяцев

Сообщений: 4253



Награды: 10 (Подробнее)

Top Releaser 5 (Количество: 1) Mega Seeder 2 (Количество: 1) За внесенный вклад в развитие сайта (Количество: 1)
Торрент-статистика

Создавать темы 26-Авг-2016 06:52

[Цитировать]

Скалолаз
| Cliffhanger |

Информация о фильме
Название: Скалолаз
Оригинальное название: Cliffhanger
Год выхода: 1993
Жанр: боевик, триллер, приключения
Режиссер: Ренни Харлин
В ролях: Сильвестр Сталлоне, Джон Литгоу, Майкл Рукер, Джанин Тёрнер, Рекс Линн, Кэролайн Гудолл, Леон, Крэйг Фэйрбрасс, Грегори Скотт Камминс, Дэнис Форест, Мишель Джойнер, Макс Перлих, Пол Уинфилд, Ральф Уэйт, Трей Браунелл, Зак Гренье, Вито Руджинис, Дон С. Дэвис, Дерек Хоксби, Джон Финн, Брюс МакГилл, Розмари Дансмор, Ким Робиллард, Джефф МакКарти, Майк Вэйз, Дункан Прентис, Кевин Дональд
О фильме:
В горах после снежной лавины теряются 5 человек. На их поиски отправляется один из лучших альпинистов и горных проводников – Гейб Уокер. Неожиданно он понимает, что его специально заманили в горы для совершенно другого дела. Также становится ясно, что Гейб станет нежелательным свидетелем, от которого без раздумья «избавятся». Но свою жизнь он терять так просто не собирается и объявляет безжалостную войну банде вооруженных до зубов боевиков под предводительством международного террориста Эрика Куалена...

Страна: Италия, Франция, США
Студия: Canal+, Carolco Pictures Inc., Cliffhanger Productions, Pioneer, RCS Video
Продолжительность: 01:52:42
Перевод: Профессиональный многоголосый, профессиональный двухголосый, авторский
Файл
Кодек: h.264
Качество: BDRip-AVC
Видео: 1984 Кбит/с, 1024x424, 23.976 кадр/с
Звук:
• №1: Русский (AC3, 6 ch, 384 Кбит/с) Профессиональный двухголосый [R5 (Тwister)]
• №2: Русский (AC3, 2 ch, 192 Кбит/с) Профессиональный многоголосый [ОРТ]
• №3: Русский (AC3, 6 ch, 384 Кбит/с) Авторский одноголосый [Андрей Гаврилов, новый]
• №4: Английский (AC3, 6 ch, 384 Кбит/с)
Отдельно:
• №5: Русский (AC3, 2 ch, 192 Кбит/с) Профессиональный двухголосый [Премьер Видео Фильм]
• №6: Русский (AC3, 2 ch, 192 Кбит/с) Профессиональный двухголосый [СТС]
• №7: Русский (AC3, 2 ch, 192 Кбит/с) Профессиональный многоголосый [РТР]
• №8: Русский (AC3, 6 ch, 384 Кбит/с) Авторский одноголосый [Андрей Гаврилов, старый]
• №9: Русский (AC3, 6 ch, 384 Кбит/с) Авторский одноголосый [Василий Горчаков]
• №10: Русский (AC3, 2 ch, 192 Кбит/с) Авторский одноголосый [Леонид Володарский]
• №11: Русский (AC3, 6 ch, 384 Кбит/с) Авторский одноголосый [Юрий Живов]
• №12: Украинский (AC3, 2 ch, 192 Кбит/с) Профессиональный двухголосый [2+2]
• №13: Русский (АС3, 6 ch, 384 Кбит/с) Авторский одноголосый [Евгений Гаевский] —> скачать
Субтитры: Русские (2 вида), английские

MediaInfo

----------------------------------------------------------------------------------------
x264 [info]: frame I:1274 Avg QP:16.96 size: 62061
x264 [info]: frame P:40911 Avg QP:20.14 size: 19350
x264 [info]: frame B:119959 Avg QP:22.04 size: 6710
x264 [info]: consecutive B-frames: 3.5% 5.4% 12.2% 27.0% 19.4% 23.8% 4.4% 2.5% 0.8% 0.3% 0.3% 0.3%
----------------------------------------------------------------------------------------
Полное имя : Cliffhanger.1993.x264.BDRip-AVC.0ptimus.mkv
Формат : Matroska
Версия формата : Version 2
Размер файла : 2,62 Гбайт
Продолжительность : 1 ч. 52 м.
Общий поток : 3329 Кбит/сек
Название фильма : Скалолаз | Cliffhanger [1993] -= BDRip (AVC) by 0ptimus =-
Дата кодирования : UTC 2015-05-08 11:25:41
Программа кодирования : mkvmerge v6.6.0 ('The Edge Of The In Between') built on Dec 1 2013 17:55:00
Библиотека кодирования : libebml v1.3.0 + libmatroska v1.4.1
Видео
Идентификатор : 1
Формат : AVC
Формат/Информация : Advanced Video Codec
Профиль формата : High@L4.1
Параметр CABAC формата : Да
Параметр ReFrames формата : 9 кадров
Идентификатор кодека : V_MPEG4/ISO/AVC
Продолжительность : 1 ч. 52 м.
Битрейт : 1984 Кбит/сек
Ширина : 1024 пикселя
Высота : 424 пикселя
Соотношение сторон : 2,40:1
Режим частоты кадров : Постоянный
Частота кадров : 23,976 кадра/сек
Цветовое пространство : YUV
Субдискретизация насыщенности : 4:2:0
Битовая глубина : 8 бит
Тип развёртки : Прогрессивная
Бит/(Пиксели*Кадры) : 0.191
Размер потока : 1,51 Гбайт (58%)
Заголовок : Rip by 0ptimus
Библиотека кодирования : x264 core 133 r2334 a3ac64b
Настройки программы : cabac=1 / ref=9 / deblock=1:-3:-3 / analyse=0x3:0x113 / me=umh / subme=11 / psy=1 / psy_rd=1.00:0.20 / mixed_ref=1 / me_range=32 / chroma_me=1 / trellis=2 / 8x8dct=1 / cqm=0 / deadzone=21,11 / fast_pskip=0 / chroma_qp_offset=-3 / threads=3 / lookahead_threads=1 / sliced_threads=0 / nr=0 / decimate=0 / interlaced=0 / bluray_compat=0 / constrained_intra=0 / bframes=11 / b_pyramid=2 / b_adapt=2 / b_bias=0 / direct=3 / weightb=1 / open_gop=0 / weightp=2 / keyint=240 / keyint_min=23 / scenecut=40 / intra_refresh=0 / rc_lookahead=40 / rc=2pass / mbtree=0 / bitrate=1984 / ratetol=1.0 / qcomp=0.60 / qpmin=0 / qpmax=69 / qpstep=4 / cplxblur=20.0 / qblur=0.5 / vbv_maxrate=50000 / vbv_bufsize=50000 / nal_hrd=none / ip_ratio=1.40 / pb_ratio=1.30 / aq=1:1.00
Язык : English
Default : Да
Forced : Да
Аудио #1
Идентификатор : 2
Формат : AC-3
Формат/Информация : Audio Coding 3
Расширение режима : CM (complete main)
Параметр Endianness формата : Big
Идентификатор кодека : A_AC3
Продолжительность : 1 ч. 52 м.
Вид битрейта : Постоянный
Битрейт : 384 Кбит/сек
Каналы : 6 каналов
Расположение каналов : Front: L C R, Side: L R, LFE
Частота : 48,0 КГц
Битовая глубина : 16 бит
Метод сжатия : С потерями
Размер потока : 310 Мбайт (12%)
Заголовок : Двухголосый [R5 (Тwister)] AC3 5.1 @ 384 kbps
Язык : Russian
Default : Да
Forced : Да
Аудио #2
Идентификатор : 3
Формат : AC-3
Формат/Информация : Audio Coding 3
Расширение режима : CM (complete main)
Параметр Endianness формата : Big
Идентификатор кодека : A_AC3
Продолжительность : 1 ч. 52 м.
Вид битрейта : Постоянный
Битрейт : 192 Кбит/сек
Каналы : 2 канала
Расположение каналов : Front: L R
Частота : 48,0 КГц
Битовая глубина : 16 бит
Метод сжатия : С потерями
Размер потока : 155 Мбайт (6%)
Заголовок : Многоголосый [ОРТ] AC3 2.0 @ 192 kbps
Язык : Russian
Default : Нет
Forced : Нет
Аудио #3
Идентификатор : 4
Формат : AC-3
Формат/Информация : Audio Coding 3
Расширение режима : CM (complete main)
Параметр Endianness формата : Big
Идентификатор кодека : A_AC3
Продолжительность : 1 ч. 52 м.
Вид битрейта : Постоянный
Битрейт : 384 Кбит/сек
Каналы : 6 каналов
Расположение каналов : Front: L C R, Side: L R, LFE
Частота : 48,0 КГц
Битовая глубина : 16 бит
Метод сжатия : С потерями
Размер потока : 310 Мбайт (12%)
Заголовок : Авторский [Андрей Гаврилов, новый] AC3 5.1 @ 384 kbps
Default : Нет
Forced : Нет
Аудио #4
Идентификатор : 5
Формат : AC-3
Формат/Информация : Audio Coding 3
Расширение режима : CM (complete main)
Параметр Endianness формата : Big
Идентификатор кодека : A_AC3
Продолжительность : 1 ч. 52 м.
Вид битрейта : Постоянный
Битрейт : 384 Кбит/сек
Каналы : 6 каналов
Расположение каналов : Front: L C R, Side: L R, LFE
Частота : 48,0 КГц
Битовая глубина : 16 бит
Метод сжатия : С потерями
Размер потока : 310 Мбайт (12%)
Заголовок : AC3 5.1 @ 384 kbps
Язык : English
Default : Нет
Forced : Нет
Текст #1
Идентификатор : 6
Формат : UTF-8
Идентификатор кодека : S_TEXT/UTF8
Идентификатор кодека/Информация : UTF-8 Plain Text
Заголовок : v1
Язык : Russian
Default : Нет
Forced : Нет
Текст #2
Идентификатор : 7
Формат : UTF-8
Идентификатор кодека : S_TEXT/UTF8
Идентификатор кодека/Информация : UTF-8 Plain Text
Заголовок : v2
Язык : Russian
Default : Нет
Forced : Нет
Текст #3
Идентификатор : 8
Формат : UTF-8
Идентификатор кодека : S_TEXT/UTF8
Идентификатор кодека/Информация : UTF-8 Plain Text
Язык : English
Default : Нет
Forced : Нет
Меню
00:00:00.000 : :Chapter 01
00:06:06.655 : :Chapter 02
00:13:24.801 : :Chapter 03
00:22:48.825 : :Chapter 04
00:27:15.507 : :Chapter 05
00:34:28.356 : :Chapter 06
00:40:27.007 : :Chapter 07
00:49:08.070 : :Chapter 08
00:55:17.688 : :Chapter 09
01:03:35.811 : :Chapter 10
01:11:08.305 : :Chapter 11
01:18:27.868 : :Chapter 12
01:26:01.488 : :Chapter 13
01:32:17.948 : :Chapter 14
01:35:32.768 : :Chapter 15
01:41:54.149 : :Chapter 16

Скриншоты



Релиз от:
[Профиль] [ЛС]
Показать сообщения:    

Текущее время: Сегодня 03:11

Часовой пояс: GMT



Вы не можете начинать темы
Вы не можете отвечать на сообщения
Вы не можете редактировать свои сообщения
Вы не можете удалять свои сообщения
Вы не можете голосовать в опросах
Вы не можете прикреплять файлы к сообщениям
Вы не можете скачивать файлы