Скайлайн / Skyline (Колин Штраус / Colin Strause, Грег Штраус / Greg Strause) [2010, США, фантастика, боевик, триллер, DVDRip] Dub

 
Автор Сообщение

TorrentFilm ®

Пол:

Стаж: 2 года

Сообщений: 7741



Награды: Нет

Торрент-статистика

Создавать темы 21-Дек-2014 02:15

[Цитировать]

Скайлайн / Skyline
«Не смотри вверх»
Страна: США
Жанр: фантастика, боевик, триллер
Год выпуска: 2010
Продолжительность: 1:28:44
Перевод: Профессиональный (дублированный)
Cубтитры: нет
Режиссер: Колин Штраус / Colin Strause, Грег Штраус / Greg Strause
В ролях: Эрик Бальфур, Скотти Томпсон, Дэвид Зайас, Бриттани Дэниэл, Дональд Фэйсон, Кристал Рид, Нил Хопкинс, Робин Гэммел, Таня Ньюболд, Дж. Пол Бомер
Роли дублировали: Илья Бледный, Ирина Киреева, Михаил Георгиу, Татьяна Шитова, Пётр Иващенко
Описание: После вечеринки компания друзей просыпается от того, что в окно ударяет яркий свет. Они видят, как людей на улице затягивает в столп света, и они поднимаются куда-то вверх. Вскоре после этого на планете начинается зачистка оставшихся людей. Выжившим предстоит бороться за жизнь с инопланетными тварями.
Возраст: 16+
Рейтинг MPAA: PG-13


Качество видео: DVDRip
Формат видео: AVI
Видео: XVID, 25.000 fps, 720 x 400 (16:9), 1 746 Kbps
Аудио: AC-3, 48.0 KHz, 6 ch, 448 Kbps

MediaInfo

Полное имя : D:\TORRENT\Skyline\Skyline.2010.DVDRip_[nikshutnik].avi
Формат : AVI
Формат/Информация : Audio Video Interleave
Размер файла : 1,37 Гбайт
Продолжительность : 1 ч. 28 м.
Общий поток : 2204 Кбит/сек
Программа кодирования : VirtualDubMod 1.5.10.3 | www.virtualdub-fr.org || (build 2550/release)
Библиотека кодирования : VirtualDubMod build 2550/release
Видео
Идентификатор : 0
Формат : MPEG-4 Visual
Профиль формата : Advanced Simple@L5
Параметр BVOP формата : 1
Параметр QPel формата : Нет
Параметр GMC формата : Без точки перехода
Параметр матрицы формата : Выборочная
Идентификатор кодека : XVID
Идентификатор кодека/Подсказка : XviD
Продолжительность : 1 ч. 28 м.
Битрейт : 1746 Кбит/сек
Ширина : 720 пикселей
Высота : 400 пикселей
Соотношение сторон : 16:9
Частота кадров : 25,000 кадров/сек
Цветовое пространство : YUV
Субдискретизация насыщенности : 4:2:0
Битовая глубина : 8 бит
Тип развёртки : Прогрессивная
Метод сжатия : С потерями
Бит/(Пиксели*Кадры) : 0.242
Размер потока : 1,08 Гбайт (79%)
Библиотека кодирования : XviD 1.2.1 (UTC 2008-12-04)
Аудио
Идентификатор : 1
Формат : AC-3
Формат/Информация : Audio Coding 3
Расширение режима : CM (complete main)
Параметр Endianness формата : Big
Идентификатор кодека : 2000
Продолжительность : 1 ч. 28 м.
Вид битрейта : Постоянный
Битрейт : 448 Кбит/сек
Каналы : 6 каналов
Расположение каналов : Front: L C R, Side: L R, LFE
Частота : 48,0 КГц
Битовая глубина : 16 бит
Метод сжатия : С потерями
Размер потока : 284 Мбайт (20%)
Выравнивание : Разделение по промежуткам
Продолжительность промежутка : 40 мс. (1,00 видеокадр)
Время предзагрузки промежутка : 500 мс.

Скриншот c названием фильма

Скриншоты

[Профиль] [ЛС]

Создавать темы 06-Авг-2015 22:53 (спустя 7 месяцев 16 дней)

Топик был перенесен из форума Фильмы до 2014 года в форум Фильмы до 2012 года
sergej644
 

Создавать темы 12-Июн-2016 07:54 (спустя 1 год 5 месяцев)

Топик был перенесен из форума Фильмы 2011 года в форум Фильмы 2010 года
Russian Mafia
 
Кто просматривает тему:

Форум Тема Автор Размер
Фильмы (HD Rips | 720p, 1080p) Скайлайн / Skyline (2010) BDRip 720 sergej644 2.48 GB
Показать сообщения:    

Текущее время: Сегодня 02:45

Часовой пояс: GMT



Вы не можете начинать темы
Вы не можете отвечать на сообщения
Вы не можете редактировать свои сообщения
Вы не можете удалять свои сообщения
Вы не можете голосовать в опросах
Вы не можете прикреплять файлы к сообщениям
Вы не можете скачивать файлы