Сказочная Русь [05х085-120] (2014) SATRip

 
Автор Сообщение

BOSS ®

Пол:

Стаж: 2 года 1 месяц

Сообщений: 3735

Откуда: ODESSA



Награды: 20 (Подробнее)

Top Seeder 3 (Количество: 1) Top Keeper 2 (Количество: 1) За внесенный вклад в развитие сайта (Количество: 1)
Торрент-статистика

Создавать темы 02-Янв-2015 08:44

[Цитировать]

Информация о фильме
Название: Сказочная Русь/Будет смешно но-новому
Год выхода: 2014
Жанр: Короткометражка, мультфильм, комедия
Сценаристы: Владимир Зеленский, Валерий Жидков
В ролях: Мультперсонажи: Михаил Саакашвили, Петр Порошенко, Владимир Зеленский, Виктор Янукович, Владимир Путин, Александр Лукашенко, Дмитрий Медведев, Николай Азаров, Виктор Ющенко, Наталия Королевская, Юлия Тимошенко, Володимир Литвин, Савик Шустер, Виталий Кличко, Дмитрий Киселёв, Виктор Ющенко, Савик Шустер, Леонид Кравчук, Леонид Кучма, Барак Обама, Ангела Меркель, Игорь Коломойский...
О фильме:
Новый яркий мультсериал «Сказочная Русь» является саркастическим и комиксным изображением тех политических сил и событий, происходящих в современной Украине. В героях сериала, якобы живущих и действующих в Древней Руси и, на первый взгляд, напоминающих персонажей былинных сказаний из славянского эпоса, зритель без труда узнает и действующего президента государства, и его первых помощников, и широко известных оппозиционеров. Создатели сериала, Владимир Зеленский и его единомышленники широко известны своими пародиями на острые политические темы. Бывшие прославленные КВНщики, ныне не менее знаменитые деятели шоу-бизнеса, не перестают удивлять зрителей остротой и точностью своих пародий, исполненных и в собственной телевизионной передаче, и художественных фильмах. Не являясь приверженцами одного единственного жанра, теперь ребята добрались и до мультипликации. Каждая серия является законченной историей, высмеивающей определённое событие или неприемлемое поведение одного из «сказочных» персонажей. В целом мультсериал получился живым, красочным и наполненным лёгким юмором.

MediaInfo

General
Complete name : E:TorrentiSkazochnaja.Rus.5+.2014.+.XviD.SATRip.by.simkaSkazochnaja.Rus.5+.2014.+.XviD.SATRip.by.simkaSkazochnaja.Rus-5.(097.serija).2014.XviD.SATRip.by.simka.avi
Format : AVI
Format/Info : Audio Video Interleave
File size : 350 MiB
Duration : 15mn 19s
Overall bit rate : 3 190 Kbps
Writing application : VirtualDubMod 1.5.10.3 | www.virtualdub-fr.org || (build 2550/release)
Writing library : VirtualDubMod build 2550/release
Video #0
ID : 0
Format : MPEG-4 Visual
Format profile : Advanced Simple@L5
Format settings, BVOP : 1
Format settings, QPel : No
Format settings, GMC : No warppoints
Format settings, Matrix : Default (MPEG)
Codec ID : XVID
Codec ID/Hint : XviD
Duration : 15mn 19s
Bit rate : 2 989 Kbps
Width : 720 pixels
Height : 416 pixels
Display aspect ratio : 1.731
Frame rate : 25.000 fps
Color space : YUV
Chroma subsampling : 4:2:0
Bit depth : 8 bits
Scan type : Progressive
Compression mode : Lossy
Bits/(Pixel*Frame) : 0.399
Stream size : 328 MiB (94%)
Writing library : XviD 1.2.1 (UTC 2008-12-04)
Audio #1
ID : 1
Format : MPEG Audio
Format version : Version 1
Format profile : Layer 3
Mode : Joint stereo
Mode extension : MS Stereo
Codec ID : 55
Codec ID/Hint : MP3
Duration : 15mn 19s
Bit rate mode : Constant
Bit rate : 192 Kbps
Channel(s) : 2 channels
Sampling rate : 48.0 KHz
Compression mode : Lossy
Stream size : 21.1 MiB (6%)
Alignment : Aligned on interleaves
Interleave, duration : 40 ms (1.00 video frame)
Interleave, preload duration : 504 ms

Официальный сайт
Страна: Украина
Студия: Студия Квартал-95
Продолжительность: ~00:15:00 серия
Перевод: Не требуется
Файл
Кодек: XviD
Качество: SATRip
Видео: 720x416, ~2600 kbps, 25 fps
Звук: MP3, 192 Kbps, 48.0 KHz, 2ch

Скриншоты

[Профиль] [ЛС]
Кто просматривает тему:

Форум Тема Автор Размер
BBC BBC: Сказочный замок короля Людвига II / The Fairytale Castles of king Ludwig II (Александр Лейт / Alexander Leigth) [2013 г., Документальный, архитектура, искусство, история, HDTVRip 720p] skorpionN 1.59 GB
Программы [Разное] Сказочная Русь HD 1.120 [Android 2.1+, MULTI] TorrentFilm 988 KB
Программы [Читалки] [Читалки] Талейдоскоп - бесплатная библиотека рассказов v0.9.4 [Android 2.3.3+, RUS] [Android 2.3, RUS] TorrentFilm 3 MB
Мультфильмы СССР В мире сказок. Сборник мультфильмов. Выпуск 4 (2004) DVD5 by гаврила Белочка 3.98 GB
Мультфильмы СССР В мире сказок. Сборник мультфильмов. Выпуск 8 (1967) DVD5 by гаврила Белочка 3.45 GB
Мультфильмы СССР Герои любимых сказок (1963-1970) DVDRip-AVC от Тorrent-Хzona Белочка 1.33 GB
Детская литература Коллектив Авторов - Золотая книга сказок [сборник] (2014) MP3 Swager 818 MB
Фантастика и фэнтези Коллектив авторов – Сборник рассказов к 8-му марта «Весна 2016» (2016) MP3 Swager 263 MB
Показать сообщения:    

Текущее время: Сегодня 16:25

Часовой пояс: GMT



Вы не можете начинать темы
Вы не можете отвечать на сообщения
Вы не можете редактировать свои сообщения
Вы не можете удалять свои сообщения
Вы не можете голосовать в опросах
Вы не можете прикреплять файлы к сообщениям
Вы не можете скачивать файлы