Сказки Хэллоуина / Tales of Halloween (2015) WEBRip 1080p | Трейлер

 
Автор Сообщение

BOSS ®

Пол:

Стаж: 2 года 1 месяц

Сообщений: 3712

Откуда: ODESSA



Награды: 20 (Подробнее)

Mega Seeder 5 (Количество: 1) Mega Seeder 4 (Количество: 1) Top Keeper 2 (Количество: 1)
Торрент-статистика

Создавать темы 17-Июл-2015 10:46

[Цитировать]

Год выпуска: 2015
Производство: США
Жанр: ужасы
Перевод: дублированный
Режиссер: Даррен Линн Боусман, Аксель Кэролин, Адам Гираш
Продюсеры: Шакед Беренсон, Аксель Кэролин, Патрик Эвальд
Актеры: Грэйс Фиппс, Бу Бу Стюарт, Джеймс Дювал, Грег Гранберг, Лин Шэй, Кейр Гилкрист, Эдриенн Барбо, Сэм Уитвер, Бэрри Боствик, Хосе Пабло Кантильо
Описание фильма:
Десять историй, объединенные одной общей темой Хэллоуина, переплетаются вместе в американском пригороде, где упыри, черти, пришельцы и убийцы с топором появляются только в течении одной ночи, чтобы терроризировать ничего не подозревающих жителей.
Дата мировой премьеры: 24 июля 2015
Дата российской премьеры: 24 июля 2015

Продолжительность: 00:01:13
Качество видео: WEBRip 1080p
Видеокодек: MPEG-4 AVC/H.264
Битрейт видео: 1850 Кбит/сек
Размер кадра: 1920x800
Аудиокодек: AAC
Битрейт аудио: 128 Кбит/сек

MediaInfo:

Общее
Полное имя : Tales-of-Halloween.mp4
Формат : MPEG-4
Профиль формата : Base Media
Идентификатор кодека : isom
Размер файла : 17,2 Мбайт
Продолжительность : 1 м. 13 с.
Режим общего битрейта : Переменный
Общий поток : 1982 Кбит/сек
Дата кодирования : UTC 2015-07-16 10:54:31
Дата пометки : UTC 2015-07-16 10:54:31
Программа кодирования : Lavf51.12.1
Видео
Идентификатор : 1
Формат : AVC
Формат/Информация : Advanced Video Codec
Профиль формата : Baseline@L4
Параметр CABAC формата : Нет
Параметр ReFrames формата : 1 кадр
Параметр GOP формата : M=1, N=12
Идентификатор кодека : avc1
Идентификатор кодека/Информация : Advanced Video Coding
Продолжительность : 1 м. 13 с.
Битрейт : 1850 Кбит/сек
Ширина : 1920 пикселей
Высота : 800 пикселей
Соотношение сторон : 2,40:1
Режим частоты кадров : Постоянный
Частота кадров : 23,976 кадра/сек
Цветовое пространство : YUV
Субдискретизация насыщенности : 4:2:0
Битовая глубина : 8 бит
Тип развёртки : Прогрессивная
Бит/(Пиксели*Кадры) : 0.050
Размер потока : 16,1 Мбайт (93%)
Дата кодирования : UTC 2015-07-16 10:54:31
Дата пометки : UTC 2015-07-16 10:54:31
Аудио
Идентификатор : 2
Формат : AAC
Формат/Информация : Advanced Audio Codec
Профиль формата : LC
Идентификатор кодека : 40
Продолжительность : 1 м. 12 с.
Вид битрейта : Переменный
Битрейт : 128 Кбит/сек
Каналы : 2 канала
Расположение каналов : Front: L R
Частота : 48,0 КГц
Метод сжатия : С потерями
Размер потока : 1,11 Мбайт (6%)
Дата кодирования : UTC 2015-07-16 10:54:31
Дата пометки : UTC 2015-07-16 10:54:31
Скриншоты - -

Скриншоты

[Профиль] [ЛС]
Кто просматривает тему:

Форум Тема Автор Размер
Фильмы 2015 года 12 месяцев. Новая сказка (2015) WEB-DLRip достали все 699 MB
Фильмы (HD Rips | 720p, 1080p) 12 месяцев. Новая сказка (Денис Елеонский) [2015, Россия, фэнтези, сказка, WEB-DL 720p] Original Rus TorrentFilm 2.52 GB
R.G.TorrentFilm Video 12 месяцев. Новая сказка (Денис Елеонский) [2015, Фэнтези, сказка, WEB-DLRip] [ITunes] AleksSin 1.45 GB
Фильмы (HD Rips | 720p, 1080p) 12 месяцев: Новая сказка (2015) WEB-DL 720p | iTunes достали все 2.61 GB
National Geographic NG: Кровавые Сказки Европы / Bloody Tales of Europe [сезон 2 серии 1-6 из 6] (Люк Маклаглин) [2013 г., Документально-постановочный, история, расследование, HDTVRip] skorpionN 3.58 GB
Фильмы (DVD 5/9) Pocлeдняя сказка Riты (Reнaтa Lитvинova) [2012, Россия, фэнтези, драма, детектив, DVD9] R5 Sub Eng + Original Rus TorrentFilm 6.13 GB
Viasat Nature Viasat Nature: Рождество. Зимняя сказка (Подготовка к зимовке) / Christmas. Winter Wonderland (Annette & Klaus Scheurich) [2014 г., Документальный, путешествия, флора, фауна, SATRip] skorpionN 746 MB
Программы [Android] Аудио сказки для детей v102 [Детские / Обучающие, VGA/WVGA, RUS] TorrentFilm 22 MB
Показать сообщения:    

Текущее время: Сегодня 09:50

Часовой пояс: GMT



Вы не можете начинать темы
Вы не можете отвечать на сообщения
Вы не можете редактировать свои сообщения
Вы не можете удалять свои сообщения
Вы не можете голосовать в опросах
Вы не можете прикреплять файлы к сообщениям
Вы не можете скачивать файлы