Сказки-невелички (Алексей Папшин) [1979 г., мультфильм, DVB-AVC]

 
Автор Сообщение

TorrentFilm ®

Пол:

Стаж: 2 года

Сообщений: 7741



Награды: Нет

Торрент-статистика

Создавать темы 03-Янв-2016 00:05

[Цитировать]

Сказки-невелички
Жанр: мультфильм
Год выпуска: 1979
Продолжительность: 00:15:14
Режиссёр: Алексей Папшин
Описание: мультфильм , состоящий из трех частей: "Медвежка-сладкоежка", "Зайчишка-хвастунишка" и "Неблагодарный козлёнок" ... (Для малышей)
Доп. информация:

Релиз группы:
Качество видео: DVB
Формат видео: MPEG-TS
Видео: MPEG4 Video (H264), 720x576@785x576 (4:3), анаморф, 25 fps, 5400 kbps
Аудио: MPEG Audio, 2 сh, 48 kHz, 192 kbps
Трансляция спутникового канала:

MediaInfo

D:\Сказки-невелички. (1979)_DVB by SLuMeP.ts
General #1
ID : 1 (0x1)
Complete name : D:\Сказки-невелички. (1979)_DVB by SLuMeP.ts
Format : MPEG-TS
File size : 637 MiB
Duration : 15mn 14s
Overall bit rate : 5 840 Kbps
Video #2271
ID : 2271 (0x8DF)
Menu ID : 1 (0x1)
Format : AVC
Format/Info : Advanced Video Codec
Format profile : Main@L3.0
Format settings, CABAC : Yes
Format settings, ReFrames : 3 frames
Codec ID : 27
Duration : 15mn 14s
Bit rate : 5 357 Kbps
Width : 720 pixels
Height : 576 pixels
Display aspect ratio : 4:3
Frame rate : 25.000 fps
Standard : Component
Color space : YUV
Chroma subsampling : 4:2:0
Bit depth : 8 bits
Scan type : Interlaced
Scan order : Top Field First
Bits/(Pixel*Frame) : 0.517
Stream size : 584 MiB (92%)
Color primaries : BT.470-6 System B, BT.470-6 System G, BT.601-6 625, BT.1358 625, BT.1700 625 PAL, BT.1700 625 SECAM
Transfer characteristics : BT.470-6 System B, BT.470-6 System G
Matrix coefficients : BT.470-6 System B, BT.470-6 System G, BT.601-6 625, BT.1358 625, BT.1700 625 PAL, BT.1700 625 SECAM, IEC 61966-2-4 601
Audio #2272
ID : 2272 (0x8E0)
Menu ID : 1 (0x1)
Format : MPEG Audio
Format version : Version 1
Format profile : Layer 2
Codec ID : 3
Duration : 15mn 14s
Bit rate mode : Constant
Bit rate : 192 Kbps
Channel(s) : 2 channels
Sampling rate : 48.0 KHz
Compression mode : Lossy
Delay relative to video : -40ms
Stream size : 20.9 MiB (3%)
Language : Russian

Скриншоты

[Профиль] [ЛС]
Кто просматривает тему:

Форум Тема Автор Размер
Фильмы 2015 года 12 месяцев. Новая сказка (2015) WEB-DLRip достали все 699 MB
Фильмы (HD Rips | 720p, 1080p) 12 месяцев. Новая сказка (Денис Елеонский) [2015, Россия, фэнтези, сказка, WEB-DL 720p] Original Rus TorrentFilm 2.52 GB
R.G.TorrentFilm Video 12 месяцев. Новая сказка (Денис Елеонский) [2015, Фэнтези, сказка, WEB-DLRip] [ITunes] AleksSin 1.45 GB
Фильмы (HD Rips | 720p, 1080p) 12 месяцев: Новая сказка (2015) WEB-DL 720p | iTunes достали все 2.61 GB
National Geographic NG: Кровавые Сказки Европы / Bloody Tales of Europe [сезон 2 серии 1-6 из 6] (Люк Маклаглин) [2013 г., Документально-постановочный, история, расследование, HDTVRip] skorpionN 3.58 GB
Фильмы (DVD 5/9) Pocлeдняя сказка Riты (Reнaтa Lитvинova) [2012, Россия, фэнтези, драма, детектив, DVD9] R5 Sub Eng + Original Rus TorrentFilm 6.13 GB
Viasat Nature Viasat Nature: Рождество. Зимняя сказка (Подготовка к зимовке) / Christmas. Winter Wonderland (Annette & Klaus Scheurich) [2014 г., Документальный, путешествия, флора, фауна, SATRip] skorpionN 746 MB
Программы [Android] Аудио сказки для детей v102 [Детские / Обучающие, VGA/WVGA, RUS] TorrentFilm 22 MB
Показать сообщения:    

Текущее время: Сегодня 05:20

Часовой пояс: GMT



Вы не можете начинать темы
Вы не можете отвечать на сообщения
Вы не можете редактировать свои сообщения
Вы не можете удалять свои сообщения
Вы не можете голосовать в опросах
Вы не можете прикреплять файлы к сообщениям
Вы не можете скачивать файлы