Сказки на ночь / Bedtime Stories (2008) HDRip от Шкипер | D

 
Автор Сообщение

Шкипер ®

Пол:

Стаж: 2 года 2 месяца

Сообщений: 61



Награды: Нет

Торрент-статистика

Создавать темы 22-Июл-2016 14:42

[Цитировать]

Информация о фильме
Название: Сказки на ночь
Оригинальное название: Bedtime Stories
Год выхода: 2008
Жанр: Фэнтези, мелодрама, комедия, семейный
Режиссер: Адам Шенкман / Adam Shankman
В ролях: Адам Сэндлер, Кери Рассел, Гай Пирс, Расселл Брэнд, Ричард Гриффитс, Тереза Палмер, Люси Лоулесс, Кортни Кокс, Джонатан Морган Хейт, Лаура Энн Кеслинг
О фильме: В жизни главного героя Скитера Бронсона никогда не случалось ничего удивительного. Но однажды сестра попросила его присмотреть за двумя очаровательными и неугомонными племянниками и одной симпатичной морской свинкой по имени Плаксик. Все трое привыкли засыпать под мамины сказки, и Скитеру пришлось каждый вечер придумывать невероятные истории для своей веселой семейки. И вдруг происходит чудо: события сказки, рассказанной детям на ночь, начали сбываться на следующий день в жизни самого Скитера!

Страна: США
Студия: Walt Disney Pictures, Gunn Films,Happy Madison, Offspring Entertainment
Продолжительность: 01:39:12
Перевод: Профессиональный (полное дублирование) [лицензия BD CEE]
Файл
Кодек: XviD
Качество: HDRip
Видео: 688x288 (2.39:1), 23.976 fps, XviD build 73 ~1715 kbps avg, 0.36 bit/pixel
Звук: 48 kHz, AC3 Dolby Digital, 3/2 (L,C,R,l,r) + LFE ch, ~384 kbps
Субтитры: Русские (вшитые)
Семпл

MI

General
Complete name : D:Изготовление рипаSkazki.na.Noch'.2008.DUB & Rus SUB. HDRip by shkiper.avi
Format : AVI
Format/Info : Audio Video Interleave
File size : 1.46 GiB
Duration : 1h 39mn
Overall bit rate : 2 109 Kbps
Writing application : VirtualDubMod 1.5.10.3 | www.virtualdub-fr.org || (build 2550/release)
Writing library : VirtualDubMod build 2550/release
Video
ID : 0
Format : MPEG-4 Visual
Format profile : Advanced Simple@L5
Format settings, BVOP : 1
Format settings, QPel : No
Format settings, GMC : No warppoints
Format settings, Matrix : Custom
Codec ID : XVID
Codec ID/Hint : XviD
Duration : 1h 39mn
Bit rate : 1 716 Kbps
Width : 688 pixels
Height : 288 pixels
Display aspect ratio : 2.40:1
Frame rate : 23.976 (23976/1000) fps
Color space : YUV
Chroma subsampling : 4:2:0
Bit depth : 8 bits
Scan type : Progressive
Compression mode : Lossy
Bits/(Pixel*Frame) : 0.361
Stream size : 1.19 GiB (81%)
Writing library : XviD 73
Audio
ID : 1
Format : AC-3
Format/Info : Audio Coding 3
Mode extension : CM (complete main)
Format settings, Endianness : Big
Codec ID : 2000
Duration : 1h 39mn
Bit rate mode : Constant
Bit rate : 384 Kbps
Channel(s) : 6 channels
Channel positions : Front: L C R, Side: L R, LFE
Sampling rate : 48.0 KHz
Frame rate : 31.250 fps (1536 spf)
Compression mode : Lossy
Stream size : 272 MiB (18%)
Alignment : Split accross interleaves
Interleave, duration : 42 ms (1.00 video frame)
Interleave, preload duratio : 500 ms

Скриншоты

Релиз от:
[Профиль] [ЛС]
Кто просматривает тему:

Форум Тема Автор Размер
Отечественные мультсериалы Маша и медведь [01-62] + Машкины страшилки [01-17] + Машины сказки [01-26] + Караоке с Машей (2009-2016) BDRip, DVDRip, WEB-DLRip BOSS 10.25 GB
Отечественные мультсериалы Маша и медведь [01-62] + Машкины страшилки [01-18] + Машины сказки [01-26] + Караоке с Машей (01-09) BDRip, DVDRip, WEB-DLRip BOSS 10.37 GB
Зарубежные сериалы Однажды в сказке / Once Upon a Time [06x01-22 из 22] (2016) WEB-DLRip | Невафильм ZeNArD 10.76 GB
Зарубежное кино (CAMRip, Telesynch, SCR) Пираты Карибского моря: Мертвецы не рассказывают сказки / Pirates of the Caribbean: Dead Men Tell No Tales (2017) CAMRip | D BOSS 1.37 GB
Трейлеры Пираты Карибского моря: Мертвецы не рассказывают сказки / Pirates of the Caribbean: Dead Men Tell No Tales (2017) HDRip-1080p | Тизер Russian Mafia 27 MB
Зарубежное кино (CAMRip, Telesynch, SCR) Пираты Карибского моря: Мертвецы не рассказывают сказки / Pirates of the Caribbean: Dead Men Tell No Tales (2017) TS | D BOSS 1.37 GB
Зарубежное кино (CAMRip, Telesynch, SCR) Пираты Карибского моря: Мертвецы не рассказывают сказки / Pirates of the Caribbean: Dead Men Tell No Tales (2017) TS-AVC | D BOSS 1.77 GB
Трейлеры Сказки Хэллоуина / Tales of Halloween (2015) WEBRip 1080p | Трейлер BOSS 17 MB
Показать сообщения:    

Текущее время: Сегодня 19:26

Часовой пояс: GMT



Вы не можете начинать темы
Вы не можете отвечать на сообщения
Вы не можете редактировать свои сообщения
Вы не можете удалять свои сообщения
Вы не можете голосовать в опросах
Вы не можете прикреплять файлы к сообщениям
Вы не можете скачивать файлы