Сказка про доброго носорога (Евгений Сивоконь) [1970 г., мультфильм, DVB-AVC]

 
Автор Сообщение

TorrentFilm ®

Пол:

Стаж: 1 год 11 месяцев

Сообщений: 7741



Награды: Нет

Торрент-статистика

Создавать темы 02-Янв-2016 00:10

[Цитировать]

Сказка про доброго носорога
Жанр: мультфильм
Год выпуска: 1970
Продолжительность: 00:07:45
Режиссёр: Евгений Сивоконь
Описание: мультфильм создан по мотивам стихотворения Бориса Заходера о добродушном Носороге ...
Доп. информация:

Релиз группы:
Трансляция спутникового канала: "Перец"
Качество видео: DVB
Формат видео: MPEG-TS
Видео: MPEG4 Video (H264), 720x576@785x576 (4:3), анаморф, 25 fps, 3600 kbps
Аудио: MPEG Audio, 2 сh, 48 kHz, 256 kbps

MediaInfo

D:\Сказка про доброго носорога. (1970)_DVB by SLuMeP.ts
General #1
ID : 1 (0x1)
Complete name : D:\___DVB by SLuMeP\Сказка про доброго носорога. (1970)_DVB by SLuMeP.ts
Format : MPEG-TS
File size : 223 MiB
Duration : 7mn 45s
Overall bit rate : 4 015 Kbps
Video #2522
ID : 2522 (0x9DA)
Menu ID : 1 (0x1)
Format : AVC
Format/Info : Advanced Video Codec
Format profile : High@L3.0
Format settings, CABAC : Yes
Format settings, ReFrames : 3 frames
Codec ID : 27
Duration : 7mn 45s
Bit rate : 3 558 Kbps
Width : 720 pixels
Height : 576 pixels
Display aspect ratio : 4:3
Frame rate : 25.000 fps
Standard : Component
Color space : YUV
Chroma subsampling : 4:2:0
Bit depth : 8 bits
Scan type : Interlaced
Scan order : Top Field First
Bits/(Pixel*Frame) : 0.343
Stream size : 198 MiB (89%)
Color primaries : BT.470-6 System B, BT.470-6 System G, BT.601-6 625, BT.1358 625, BT.1700 625 PAL, BT.1700 625 SECAM
Transfer characteristics : BT.470-6 System B, BT.470-6 System G
Matrix coefficients : BT.470-6 System B, BT.470-6 System G, BT.601-6 625, BT.1358 625, BT.1700 625 PAL, BT.1700 625 SECAM, IEC 61966-2-4 601
Audio #3522
ID : 3522 (0xDC2)
Menu ID : 1 (0x1)
Format : MPEG Audio
Format version : Version 1
Format profile : Layer 2
Codec ID : 3
Duration : 7mn 45s
Bit rate mode : Constant
Bit rate : 256 Kbps
Channel(s) : 2 channels
Sampling rate : 48.0 KHz
Compression mode : Lossy
Stream size : 14.2 MiB (6%)
Language : English

Скриншоты


[Профиль] [ЛС]
Кто просматривает тему:

Форум Тема Автор Размер
Фильмы 2015 года 12 месяцев. Новая сказка (2015) WEB-DLRip достали все 699 MB
Фильмы (HD Rips | 720p, 1080p) 12 месяцев. Новая сказка (Денис Елеонский) [2015, Россия, фэнтези, сказка, WEB-DL 720p] Original Rus TorrentFilm 2.52 GB
R.G.TorrentFilm Video 12 месяцев. Новая сказка (Денис Елеонский) [2015, Фэнтези, сказка, WEB-DLRip] [ITunes] AleksSin 1.45 GB
Фильмы (HD Rips | 720p, 1080p) 12 месяцев: Новая сказка (2015) WEB-DL 720p | iTunes достали все 2.61 GB
National Geographic NG: Кровавые Сказки Европы / Bloody Tales of Europe [сезон 2 серии 1-6 из 6] (Люк Маклаглин) [2013 г., Документально-постановочный, история, расследование, HDTVRip] skorpionN 3.58 GB
Фильмы (DVD 5/9) Pocлeдняя сказка Riты (Reнaтa Lитvинova) [2012, Россия, фэнтези, драма, детектив, DVD9] R5 Sub Eng + Original Rus TorrentFilm 6.13 GB
Viasat Nature Viasat Nature: Рождество. Зимняя сказка (Подготовка к зимовке) / Christmas. Winter Wonderland (Annette & Klaus Scheurich) [2014 г., Документальный, путешествия, флора, фауна, SATRip] skorpionN 746 MB
Программы [Android] Аудио сказки для детей v102 [Детские / Обучающие, VGA/WVGA, RUS] TorrentFilm 22 MB
Показать сообщения:    

Текущее время: Сегодня 05:00

Часовой пояс: GMT



Вы не можете начинать темы
Вы не можете отвечать на сообщения
Вы не можете редактировать свои сообщения
Вы не можете удалять свои сообщения
Вы не можете голосовать в опросах
Вы не можете прикреплять файлы к сообщениям
Вы не можете скачивать файлы