Сказка о твердом орехе (Анатолий Аляшев) [1971 г., мультфильм , DVB]

 
Автор Сообщение

TorrentFilm ®

Пол:

Стаж: 2 года

Сообщений: 7741



Награды: Нет

Торрент-статистика

Создавать темы 03-Янв-2016 00:04

[Цитировать]

Сказка о твердом орехе
Жанр: мультфильм
Год выпуска: 1971
Продолжительность: 00:18:07
Режиссёр: Анатолий Аляшев
Описание: мультфильм по мотивам народных сказок о злой ведьме, принцессе и храбром юноше ...
Доп. информация:

Релиз группы:
Качество видео: DVB
Формат видео: MPEG-PS
Видео: MPEG2 Video, 720x576, 25 fps, 3400 kbps
Аудио: MPEG Audio, 2 сh, 48 kHz, 192 kbps
Трансляция спутникового канала: "Карусель"

MediaInfo

D:\Сказка о твёрдом орехе. (1971)_DVB by SLuMeP.mpg
General
Complete name : D:\Сказка о твёрдом орехе. (1971)_DVB by SLuMeP.mpg
Format : MPEG-PS
File size : 482 MiB
Duration : 18mn 7s
Overall bit rate mode : Variable
Overall bit rate : 3 713 Kbps
Writing library : (c) 1998-2010 Womble Multimedia, Inc. / MPEG Video Wizard DVD 5.0.0.114 (01/2010) / Apr 20 2010
Video #224
ID : 224 (0xE0)
Format : MPEG Video
Format version : Version 2
Format profile : Main@Main
Format settings, BVOP : Yes
Format settings, Matrix : Custom
Duration : 18mn 7s
Bit rate mode : Variable
Bit rate : 3 448 Kbps
Maximum bit rate : 5 000 Kbps
Width : 720 pixels
Height : 576 pixels
Display aspect ratio : 4:3
Frame rate : 25.000 fps
Standard : PAL
Color space : YUV
Chroma subsampling : 4:2:0
Bit depth : 8 bits
Scan type : Interlaced
Scan order : Top Field First
Compression mode : Lossy
Bits/(Pixel*Frame) : 0.333
Stream size : 447 MiB (93%)
Writing library : (c) 1998-2010 Womble Multimedia, Inc. / MPEG Video Wizard DVD 5.0.0.114 (01/2010) / Apr 20 2010
Audio #192
ID : 192 (0xC0)
Format : MPEG Audio
Format version : Version 1
Format profile : Layer 2
Duration : 18mn 7s
Bit rate mode : Constant
Bit rate : 192 Kbps
Channel(s) : 2 channels
Sampling rate : 48.0 KHz
Compression mode : Lossy
Delay relative to video : -40ms
Stream size : 24.9 MiB (5%)
Menu

Скриншоты

[Профиль] [ЛС]
Кто просматривает тему:

Форум Тема Автор Размер
Фильмы 2015 года 12 месяцев. Новая сказка (2015) WEB-DLRip достали все 699 MB
Фильмы (HD Rips | 720p, 1080p) 12 месяцев. Новая сказка (Денис Елеонский) [2015, Россия, фэнтези, сказка, WEB-DL 720p] Original Rus TorrentFilm 2.52 GB
R.G.TorrentFilm Video 12 месяцев. Новая сказка (Денис Елеонский) [2015, Фэнтези, сказка, WEB-DLRip] [ITunes] AleksSin 1.45 GB
Фильмы (HD Rips | 720p, 1080p) 12 месяцев: Новая сказка (2015) WEB-DL 720p | iTunes достали все 2.61 GB
National Geographic NG: Кровавые Сказки Европы / Bloody Tales of Europe [сезон 2 серии 1-6 из 6] (Люк Маклаглин) [2013 г., Документально-постановочный, история, расследование, HDTVRip] skorpionN 3.58 GB
Фильмы (DVD 5/9) Pocлeдняя сказка Riты (Reнaтa Lитvинova) [2012, Россия, фэнтези, драма, детектив, DVD9] R5 Sub Eng + Original Rus TorrentFilm 6.13 GB
Viasat Nature Viasat Nature: Рождество. Зимняя сказка (Подготовка к зимовке) / Christmas. Winter Wonderland (Annette & Klaus Scheurich) [2014 г., Документальный, путешествия, флора, фауна, SATRip] skorpionN 746 MB
Программы [Android] Аудио сказки для детей v102 [Детские / Обучающие, VGA/WVGA, RUS] TorrentFilm 22 MB
Показать сообщения:    

Текущее время: Сегодня 20:46

Часовой пояс: GMT



Вы не можете начинать темы
Вы не можете отвечать на сообщения
Вы не можете редактировать свои сообщения
Вы не можете удалять свои сообщения
Вы не можете голосовать в опросах
Вы не можете прикреплять файлы к сообщениям
Вы не можете скачивать файлы