Сказка о глупом мышонке (Ирина Собинова-Кассиль) [1981 г., Мультфильм, экранизация, SATRip]

 
Автор Сообщение

TorrentFilm ®

Пол:

Стаж: 1 год 11 месяцев

Сообщений: 7741



Награды: Нет

Торрент-статистика

Создавать темы 02-Янв-2016 00:06

[Цитировать]

Сказка о глупом мышонкеСтрана: СССР
Жанр: мультфильм, экранизация
Продолжительность: 0:09:39
Год выпуска: 1981
Выпущено: «Союзмультфильм»
Режиссёр: Ирина Собинова-Кассиль
Русские субтитры: нетОписание:По одноимённому стихотворению С. Я. Маршака.
Разонравился мышонку голос его собственной мамы, которая пела ему колыбельные, и стал он требовать няньку. Бедной мышке пришлось бегать по соседям и уговаривать их баюкать её неугомонного сыночка...

Режиссёр и команда

Режиссёр Ирина Собинова-Кассиль
сценарист Борис Степанцев
художники-постановщики: Д. Лобанова, Галина Мелько
аниматоры: Ольга Панокина, Лидия Маятникова
оператор Игорь Скидан-Босин
директор Белла Ходова
композитор Михаил Меерович
звукорежиссёр Борис Фильчиков
редактор Раиса Фричинская
куклы и декорации: Валерий Петров, Е. Дарикович, Владимир Алисов, Наталия Барковская, Светлана Знаменская, Виктор Гришин, Владимир Аббакумов, Александр Максимов, Павел Гусев, Галина Филиппова, Марина Чеснокова, Семён Этлис, Михаил Колтунов, Валентин Ладыгин
скульптор Наталия Гринберг
текст читает Ирина Собинова-Кассиль
Качество: SATRip
Формат: AVI
Видео: 720x544 (1.32:1), 25 fps, XviD build 64 ~2362 kbps avg, 0.24 bit/pixel
Аудио: 48 kHz, AC3 Dolby Digital, 2/0 (L,R) ch, ~192 kbps
Субтитры: отсутствуют

Подробные технические данные

ОбщееПолное имя : D:\Мульты\Skazka_o_glupom_myshonke_(1981,_SATRip).aviФормат : AVIФормат/Информация : Audio Video InterleaveРазмер файла : 177 МбайтПродолжительность : 9 м. 39 с.Общий поток : 2564 Кбит/секПрограмма кодирования : VirtualDubMod 1.5.10.2 (build 2540/release)Библиотека кодирования : VirtualDubMod build 2540/release
ВидеоИдентификатор : 0Формат : MPEG-4 VisualПрофиль формата : Advanced Simple@L5Параметр BVOP формата : 2Параметр QPel формата : НетПараметр GMC формата : Без точки переходаПараметр матрицы формата : ВыборочнаяИдентификатор кодека : XVIDИдентификатор кодека/Подсказка : XviDПродолжительность : 9 м. 39 с.Битрейт : 2362 Кбит/секШирина : 720 пикселейВысота : 544 пикселяСоотношение сторон : 4:3Частота кадров : 25,000 кадров/секЦветовое пространство : YUVСубдискретизация насыщенности : 4:2:0Битовая глубина : 8 битТип развёртки : ПрогрессивнаяМетод сжатия : С потерямиБит/(Пиксели*Кадры) : 0.241Размер потока : 163 Мбайт (92%)Библиотека кодирования : XviD 64
АудиоИдентификатор : 1Формат : AC-3Формат/Информация : Audio Coding 3Расширение режима : CM (complete main)Идентификатор кодека : 2000Продолжительность : 9 м. 39 с.Вид битрейта : ПостоянныйБитрейт : 192 Кбит/секКаналы : 2 каналаРасположение каналов : Front: L RЧастота : 48,0 КГцБитовая глубина : 16 битМетод сжатия : С потерямиРазмер потока : 13,3 Мбайт (7%)Выравнивание : Разделение по промежуткамПродолжительность промежутка : 40 мс. (1,00 видеокадр)Время предзагрузки промежутка : 500 мс.

Скриншоты

На закуску – пассаж с уткой:

-Сравнение с другими раздачами:
1. Сказка о глупом мышонке (в сборнике, Sermonster, 640x480, ~2227 kbps; mp3 128 kbps) http://screenshotcomparison.com/comparison/42195
2. Сказка о глупом мышонке (Женевьева, TVRip, 512x384, ~1476 kbps; mp3 96 kbps, mono) http://screenshotcomparison.com/comparison/42196
-
За источник благодарности получает SLuMeP - Все раздачи
[Профиль] [ЛС]
Кто просматривает тему:

Форум Тема Автор Размер
Фильмы 2015 года 12 месяцев. Новая сказка (2015) WEB-DLRip достали все 699 MB
Фильмы (HD Rips | 720p, 1080p) 12 месяцев. Новая сказка (Денис Елеонский) [2015, Россия, фэнтези, сказка, WEB-DL 720p] Original Rus TorrentFilm 2.52 GB
R.G.TorrentFilm Video 12 месяцев. Новая сказка (Денис Елеонский) [2015, Фэнтези, сказка, WEB-DLRip] [ITunes] AleksSin 1.45 GB
Фильмы (HD Rips | 720p, 1080p) 12 месяцев: Новая сказка (2015) WEB-DL 720p | iTunes достали все 2.61 GB
National Geographic NG: Кровавые Сказки Европы / Bloody Tales of Europe [сезон 2 серии 1-6 из 6] (Люк Маклаглин) [2013 г., Документально-постановочный, история, расследование, HDTVRip] skorpionN 3.58 GB
Фильмы (DVD 5/9) Pocлeдняя сказка Riты (Reнaтa Lитvинova) [2012, Россия, фэнтези, драма, детектив, DVD9] R5 Sub Eng + Original Rus TorrentFilm 6.13 GB
Viasat Nature Viasat Nature: Рождество. Зимняя сказка (Подготовка к зимовке) / Christmas. Winter Wonderland (Annette & Klaus Scheurich) [2014 г., Документальный, путешествия, флора, фауна, SATRip] skorpionN 746 MB
Программы [Android] Аудио сказки для детей v102 [Детские / Обучающие, VGA/WVGA, RUS] TorrentFilm 22 MB
Показать сообщения:    

Текущее время: Сегодня 04:59

Часовой пояс: GMT



Вы не можете начинать темы
Вы не можете отвечать на сообщения
Вы не можете редактировать свои сообщения
Вы не можете удалять свои сообщения
Вы не можете голосовать в опросах
Вы не можете прикреплять файлы к сообщениям
Вы не можете скачивать файлы