Сказка. Есть (Елизавета Соломина, Константин Статский, Александр Баршак) [2012, Россия, приключения, сказка, BDRip 1080p] Original Rus

 
Автор Сообщение

TorrentFilm ®

Пол:

Стаж: 2 года

Сообщений: 7741



Награды: Нет

Торрент-статистика

Создавать темы 01-Янв-2016 00:08

[Цитировать]

--Сказка. Есть-- Год выпуска: 2012
Страна: Россия
Студия: ВВП Альянс
Жанр: приключения, сказка
Продолжительность: 01:31:35
Перевод: Оригинал (лицензия)
Cубтитры: нет
Оригинальная аудиодорожка: Русский--Режиссеры: Елизавета Соломина, Константин Статский, Александр Баршак
В ролях: Константин Хабенский (большой энциклопедический словарь), Гоша Куценко (учитель пения и физкультуры Пенькультурник), Ксения Раппопорт (завуч Гала Дмитриевна), Михаил Пореченков (плюшевый мишка), Алексей Серебряков (папа), Михаил Козаков (директор школы Станислав Далиевич Сальвадоров), Андрей Смоляков (злой Клоун), Артур Смольянинов (цирковой кролик), Ирина Пегова (мама-балерина), Дарья Мороз (кукла Барби), Михаил Трухин (Ай-Под), Григорий Сиятвинда (фокусник-конферансье)
Описание: Хотели бы вы очутиться в настоящей игрушечной стране, где плюшевый мишка, букварь и МР3-плеер могут стать вашими друзьями и помогут выбраться из очень опасного приключения? Или побывать ночью в цирке, на необычном представлении, где вы оказались, "следуя за белым кроликом", как героиня другой известной сказки? Или попасть в школу, где вместо уроков вас ждут "страшные приключения" и сказочные монстры? Именно такие истории пришлось пережить героям фильма - самым обычным детям XXI века.--Доп. информация: Сохранены оригинальные чаптеры как на Blu-ray.


Релиз от: Релиз группа: --Качество видео: BDRip 1080p
Формат видео: MKV
Видео: MPEG-4 AVC, 1920x816 (2.35:1), at 24.000 fps, ~9250 kbps avg, High Profile 4.1
Аудио: DTS, 48 kHz, 3/2 (L,C,R,l,r) + LFE ch, ~755 kbps avg [Russian]

MediaInfo

Format                                   : Matroska
Format version                           : Version 2
File size                                : 6.38 GiB
Duration                                 : 1h 31mn
Overall bit rate                         : 9 972 Kbps
Movie name                               : CMEGroup_BLUEBIRD
Encoded date                             : UTC 2012-10-06 12:51:12
Writing application                      : mkvmerge v5.8.0 ('No Sleep / Pillow') built on Sep  2 2012 15:37:04
Writing library                          : libebml v1.2.3 + libmatroska v1.3.0
Video
ID                                       : 1
Format                                   : AVC
Format/Info                              : Advanced Video Codec
Format profile                           : High@L4.1
Format settings, CABAC                   : Yes
Format settings, ReFrames                : 4 frames
Codec ID                                 : V_MPEG4/ISO/AVC
Duration                                 : 1h 31mn
Bit rate                                 : 9 250 Kbps
Width                                    : 1 920 pixels
Height                                   : 816 pixels
Display aspect ratio                     : 2.35:1
Frame rate                               : 24.000 fps
Color space                              : YUV
Chroma subsampling                       : 4:2:0
Bit depth                                : 8 bits
Scan type                                : Progressive
Bits/(Pixel*Frame)                       : 0.246
Stream size                              : 5.77 GiB (90%)
Writing library                          : x264 core 125 r2208 d9d2288
Encoding settings                        : cabac=1 / ref=4 / deblock=1:-3:-3 / analyse=0x3:0x113 / me=umh / subme=11 / psy=1 / psy_rd=1.00:0.00 / mixed_ref=1 / me_range=24 / chroma_me=1 / trellis=2 / 8x8dct=1 / cqm=0 / deadzone=21,11 / fast_pskip=1 / chroma_qp_offset=-2 / threads=6 / lookahead_threads=1 / sliced_threads=0 / nr=0 / decimate=1 / interlaced=0 / bluray_compat=0 / constrained_intra=0 / bframes=6 / b_pyramid=2 / b_adapt=2 / b_bias=0 / direct=2 / weightb=0 / open_gop=0 / weightp=2 / keyint=240 / keyint_min=24 / scenecut=40 / intra_refresh=0 / rc_lookahead=40 / rc=2pass / mbtree=1 / bitrate=9250 / ratetol=1.0 / qcomp=0.60 / qpmin=0 / qpmax=69 / qpstep=4 / cplxblur=20.0 / qblur=0.5 / ip_ratio=1.40 / aq=1:1.00 / zones=127138,131886,q=40
Language                                 : English
Default                                  : Yes
Forced                                   : No
Audio
ID                                       : 2
Format                                   : DTS
Format/Info                              : Digital Theater Systems
Codec ID                                 : A_DTS
Duration                                 : 1h 31mn
Bit rate mode                            : Constant
Bit rate                                 : 755 Kbps
Channel(s)                               : 6 channels
Channel positions                        : Front: L C R, Side: L R, LFE
Sampling rate                            : 48.0 KHz
Bit depth                                : 24 bits
Compression mode                         : Lossy
Stream size                              : 494 MiB (8%)
Language                                 : Russian
Default                                  : Yes
Forced                                   : No
Menu
00:00:00.000                             : :Chapter 01
00:00:00.333                             : :Chapter 02
00:01:57.333                             : :Chapter 03
00:13:40.000                             : :Chapter 04
00:27:05.375                             : :Chapter 05
00:37:06.416                             : :Chapter 06
00:42:42.250                             : :Chapter 07
00:51:29.041                             : :Chapter 08
00:57:17.500                             : :Chapter 09
01:03:33.666                             : :Chapter 10
01:17:31.541                             : :Chapter 11

Скриншоты


[Профиль] [ЛС]
Кто просматривает тему:

Форум Тема Автор Размер
Фильмы 2015 года 12 месяцев. Новая сказка (2015) WEB-DLRip достали все 699 MB
Фильмы (HD Rips | 720p, 1080p) 12 месяцев. Новая сказка (Денис Елеонский) [2015, Россия, фэнтези, сказка, WEB-DL 720p] Original Rus TorrentFilm 2.52 GB
R.G.TorrentFilm Video 12 месяцев. Новая сказка (Денис Елеонский) [2015, Фэнтези, сказка, WEB-DLRip] [ITunes] AleksSin 1.45 GB
Фильмы (HD Rips | 720p, 1080p) 12 месяцев: Новая сказка (2015) WEB-DL 720p | iTunes достали все 2.61 GB
National Geographic NG: Кровавые Сказки Европы / Bloody Tales of Europe [сезон 2 серии 1-6 из 6] (Люк Маклаглин) [2013 г., Документально-постановочный, история, расследование, HDTVRip] skorpionN 3.58 GB
Фильмы (DVD 5/9) Pocлeдняя сказка Riты (Reнaтa Lитvинova) [2012, Россия, фэнтези, драма, детектив, DVD9] R5 Sub Eng + Original Rus TorrentFilm 6.13 GB
Viasat Nature Viasat Nature: Рождество. Зимняя сказка (Подготовка к зимовке) / Christmas. Winter Wonderland (Annette & Klaus Scheurich) [2014 г., Документальный, путешествия, флора, фауна, SATRip] skorpionN 746 MB
Программы [Android] Аудио сказки для детей v102 [Детские / Обучающие, VGA/WVGA, RUS] TorrentFilm 22 MB
Показать сообщения:    

Текущее время: Сегодня 22:37

Часовой пояс: GMT



Вы не можете начинать темы
Вы не можете отвечать на сообщения
Вы не можете редактировать свои сообщения
Вы не можете удалять свои сообщения
Вы не можете голосовать в опросах
Вы не можете прикреплять файлы к сообщениям
Вы не можете скачивать файлы