Сияние радуги / A Shine of Rainbows (Вик Сарин / Vic Sarin) [2009, Канада, Ирландия, драма, семейный, BDRip] DVO

 
Автор Сообщение

TorrentFilm ®

Пол:

Стаж: 2 года

Сообщений: 7741



Награды: Нет

Торрент-статистика

Создавать темы 09-Дек-2015 00:10

[Цитировать]

Сияние радуги / A Shine of Rainbows
Страна: Канада, Ирландия
Жанр: драма, семейный
Год выпуска: 2009
Продолжительность: 01:41:35
Перевод: Любительский (двухголосый закадровый)
Cубтитры: нет
Оригинальная аудиодорожка: нет
Режиссер: Вик Сарин / Vic Sarin
В ролях: Конни Нильсен, Эйдан Куинн, Джон Белл, Джек Глисон, Тара Элис Скалли, Ниам Шоу, Киран Лаган, Фрэнсис Куинн, Карл О’Нилл, Джой МакБринн
Описание: Двойные радуги такое же редкое явление, как и любящая женщина Мария О`Доннел. Чтобы поделиться своей радостью, заботой и теплом, она принимает сироту по имени Томас и приглашает его жить на удаленный остров Корри у берегов Ирландии. Однако муж Алик не одобряет робость Томаса и его неумение общаться с людьми. Он не может скрыть свое разочарование в том, что Томас не тот ребенок, которого он хотел. Вскоре Томас начинает называть Марию своей матерью. Но счастье длится не долго…
Кинопоиск
Sample
Качество видео: BDRip - BDRemux 1080p
Формат видео: AVI
Видео: 720x304 (2.37:1), 23.976 fps, XviD build 50 ~1856 kbps avg, 0.35 bit/pixel
Аудио: 48 kHz, AC3 Dolby Digital, 2/0 (L,R) ch, ~192 kbps

MediaInfo

General
Complete name : L:\A Shine of Rainbows 2009 BDRip.avi
Format : AVI
Format/Info : Audio Video Interleave
File size : 1.46 GiB
Duration : 1h 41mn
Overall bit rate : 2 058 Kbps
Writing application : VirtualDubMod 1.5.10.3 | www.virtualdub-fr.org || (build 2550/release)
Writing library : VirtualDubMod build 2550/release
Video
ID : 0
Format : MPEG-4 Visual
Format profile : Advanced Simple@L5
Format settings, BVOP : 2
Format settings, QPel : No
Format settings, GMC : No warppoints
Format settings, Matrix : Default (H.263)
Codec ID : XVID
Codec ID/Hint : XviD
Duration : 1h 41mn
Bit rate : 1 857 Kbps
Width : 720 pixels
Height : 304 pixels
Display aspect ratio : 2.35:1
Frame rate : 23.976 fps
Color space : YUV
Chroma subsampling : 4:2:0
Bit depth : 8 bits
Scan type : Progressive
Compression mode : Lossy
Bits/(Pixel*Frame) : 0.354
Stream size : 1.32 GiB (90%)
Writing library : XviD 1.2.1 (UTC 2008-12-04)
Audio
ID : 1
Format : AC-3
Format/Info : Audio Coding 3
Mode extension : CM (complete main)
Format settings, Endianness : Big
Codec ID : 2000
Duration : 1h 41mn
Bit rate mode : Constant
Bit rate : 192 Kbps
Channel count : 2 channels
Channel positions : Front: L R
Sampling rate : 48.0 KHz
Bit depth : 16 bits
Compression mode : Lossy
Stream size : 140 MiB (9%)
Alignment : Split accross interleaves
Interleave, duration : 42 ms (1.00 video frame)
Interleave, preload duration : 500 ms

Скриншот c названием фильма

Скриншоты

[Профиль] [ЛС]

Создавать темы 12-Июн-2016 07:56 (спустя 6 месяцев 3 дня)

Топик был перенесен из форума Фильмы 2011 года в форум Фильмы 2009 года
Russian Mafia
 
Показать сообщения:    

Текущее время: Сегодня 00:19

Часовой пояс: GMT



Вы не можете начинать темы
Вы не можете отвечать на сообщения
Вы не можете редактировать свои сообщения
Вы не можете удалять свои сообщения
Вы не можете голосовать в опросах
Вы не можете прикреплять файлы к сообщениям
Вы не можете скачивать файлы