Ситуация под контролем / Countdown to Collision (Carlo Massarella) (1-6 из 8 серий) [Документальный, DVB-S2 Remux 1080i] VO

 
Автор Сообщение

TorrentFilm ®

Пол:

Стаж: 2 года

Сообщений: 7741



Награды: Нет

Торрент-статистика

Создавать темы 05-Фев-2015 00:01

[Цитировать]

Ситуация под контролем
Countdown to Collision
-
Год выпуска: 2012
Страна: США
Жанр: Документальный
Продолжительность: 5 x ~ 00:44:00
Перевод: Профессиональный (одноголосый закадровый) VSI Москва
Субтитры: Нет-Производство: Discovery Cannel- -Семпл: Скачать
Рейтинг: http://www.imdb.com/title/tt2152354/?ref_=fn_al_tt_1
Все раздачи: Ситуация под контролем-Описание:
Чем совершеннее и сложнее техника, тем сильнее мы от нее зависим. От поломки домашнего компьютера пострадает только его владелец, лишенный возможности работать, играть или переписываться с друзьями по соцсети. Но что, если в международом аэропорту из-за поломки компьютера диспетчеры потеряют связь с пилотами? Последствия такого события будут без преувеличения катастрофическими.
Программа «Ситуация под контролем» рассказывает о том, как люди обезопасили себя от подобных сбоев с помощью различных инженерных решений. Вы увидите инновационные разработки, благодаря которым выход из строя одного или даже нескольких звеньев не приводит к сбою всей системы, будь то аэропорт или гигантский завод. Вы побываете в ситуациях, когда, казалось бы, беда неизбежна – и все-таки люди с помощью умной техники находят выход из положения. Наконец, вы на собственном опыте убедитесь, насколько четко организована работа крупнейшего в мире авиаузла, самого большого морского порта и главной шахты по добыче золота в Австралии.-Формат: DVB-S2 Remux 1080i
Видео кодек: AVC
Аудио кодеk: AC3
Видео: 1920x1080 (16:9), 25 fps, AVC, ~7000 Кбит/сек
Аудио: Russian: AC3 5.1 (48 kHz / 384 kbps / 16 bit) (Одноголосый закадровый)
English: AC3 5.1 (48 kHz / 384 kbps / 16 bit)
-

Список серий:


01. Аэропорт в Великобритании / Airport UK
02. Мегапорт Роттердам / Mega Port Rotterdam
03. Платформа Тролль-А, Норвегия / Troll a Norway
04. Мегаплотина, Бразилия / Mega Dam Brazil
05. Мегашахта, Австралия / Mega Mine Australia
06. Ледокол / Arctic Icebreaker

07. Sao Paulo Metro
08. World's Longest Train Carajas Railroad

MediaInfo

Общее
Уникальный идентификатор                 : 232816587424762196666343205388705556630 (0xAF26D7FE80785055B7A1E90DB5736896)
Полное имя                               : Countdown to Collision [HDTV.1080i]\03. Платформа Тролль-А, Норвегия [HDTV.1080i_RUS-ENG].mkv
Формат                                   : Matroska
Версия формата                           : Version 4 / Version 2
Размер файла                             : 2,50 Гбайт
Продолжительность                        : 43 м.
Общий поток                              : 8130 Кбит/сек
Дата кодирования                         : UTC 2015-02-04 15:13:47
Программа кодирования                    : mkvmerge v7.5.0 ('Glass Culture') 64bit built on Jan  4 2015 16:48:44
Библиотека кодирования                   : libebml v1.3.1 + libmatroska v1.4.2
DURATION                                 : 00:43:59.680000000
NUMBER_OF_FRAMES                         : 82490
NUMBER_OF_BYTES                          : 126704640
_STATISTICS_WRITING_APP                  : mkvmerge v7.5.0 ('Glass Culture') 64bit built on Jan  4 2015 16:48:44
_STATISTICS_WRITING_DATE_UTC             : 2015-02-04 15:13:47
_STATISTICS_TAGS                         : BPS DURATION NUMBER_OF_FRAMES NUMBER_OF_BYTES
Видео
Идентификатор                            : 1
Формат                                   : AVC
Формат/Информация                        : Advanced Video Codec
Профиль формата                          : High@L4.0
Параметр CABAC формата                   : Да
Параметр ReFrames формата                : 3 кадра
Идентификатор кодека                     : V_MPEG4/ISO/AVC
Продолжительность                        : 43 м.
Битрейт                                  : 7200 Кбит/сек
Ширина                                   : 1920 пикселей
Высота                                   : 1080 пикселей
Соотношение сторон                       : 16:9
Режим частоты кадров                     : Постоянный
Частота кадров                           : 25,000 кадров/сек
Стандарт вещания                         : Component
Цветовое пространство                    : YUV
Субдискретизация насыщенности            : 4:2:0
Битовая глубина                          : 8 бит
Тип развёртки                            : Чересстрочная
Порядок развёртки                        : Верхнее поле первое
Бит/(Пиксели*Кадры)                      : 0.139
Размер потока                            : 2,21 Гбайт (89%)
Заголовок                                : Troll a Norway
Язык                                     : English
Default                                  : Да
Forced                                   : Да
Основные цвета                           : BT.709
Характеристики трансфера                 : BT.709
Коэффициенты матрицы                     : BT.709
colour_range                             : Limited
Аудио #1
Идентификатор                            : 2
Формат                                   : AC-3
Формат/Информация                        : Audio Coding 3
Расширение режима                        : CM (complete main)
Параметр Endianness формата              : Big
Идентификатор кодека                     : A_AC3
Продолжительность                        : 43 м.
Вид битрейта                             : Постоянный
Битрейт                                  : 384 Кбит/сек
Каналы                                   : 6 каналов
Расположение каналов                     : Front: L C R, Side: L R, LFE
Частота                                  : 48,0 КГц
Битовая глубина                          : 16 бит
Метод сжатия                             : С потерями
Размер потока                            : 121 Мбайт (5%)
Заголовок                                : Профессиональный (одноголосый закадровый)
Язык                                     : Russian
Default                                  : Да
Forced                                   : Да
Аудио #2
Идентификатор                            : 3
Формат                                   : AC-3
Формат/Информация                        : Audio Coding 3
Расширение режима                        : CM (complete main)
Параметр Endianness формата              : Big
Идентификатор кодека                     : A_AC3
Продолжительность                        : 43 м.
Вид битрейта                             : Постоянный
Битрейт                                  : 384 Кбит/сек
Каналы                                   : 6 каналов
Расположение каналов                     : Front: L C R, Side: L R, LFE
Частота                                  : 48,0 КГц
Битовая глубина                          : 16 бит
Метод сжатия                             : С потерями
Размер потока                            : 121 Мбайт (5%)
Заголовок                                : Original
Язык                                     : English
Default                                  : Нет
Forced                                   : Нет

Скриншоты:

-
[Профиль] [ЛС]
Показать сообщения:    

Текущее время: Сегодня 08:49

Часовой пояс: GMT



Вы не можете начинать темы
Вы не можете отвечать на сообщения
Вы не можете редактировать свои сообщения
Вы не можете удалять свои сообщения
Вы не можете голосовать в опросах
Вы не можете прикреплять файлы к сообщениям
Вы не можете скачивать файлы