Сити-Айленд / City Island (Рэймонд Де Фелитта / Raymond De Felitta) [2009, США, комедия, драма, BDRip-AVC] DUB + Subs (rus, eng) + original eng

 
Автор Сообщение

TorrentFilm ®

Пол:

Стаж: 1 год 11 месяцев

Сообщений: 7741



Награды: Нет

Торрент-статистика

Создавать темы 15-Фев-2015 00:00

[Цитировать]

-Сити-Айленд / City Island Страна: США
Жанр: комедия, драма
Год выпуска: 2009
Продолжительность: 1:43:48-Перевод: Профессиональный (дублированный)
-Cубтитры: русские, английские
Оригинальная аудиодорожка: английский-Режиссер: Рэймонд Де Фелитта / Raymond De Felitta-В ролях-Энди Гарсиа, Джулианна Маргулис, Стивен Стрейт, Доминик Гарсиа-Лоридо, Эзра Миллер, Эмили Мортимер, Алан Аркин-Описание-Безумная семейка Риццо обитает на тихом и спокойном островке в Бронксе. В ней, как и во всякой другой, есть свои «скелеты в шкафу». И когда один из этих «скелетов» показывается на свет, секреты раскрываются, а жизнь всех членов семьи резко меняется. Только вот в какую сторону?
Трогательная и остроумная комедия о секретах прошлого, запутанных во лжи настоящего. В этой жизни нет идеальных людей, по крайней мере, из тех, кого ты любишь.
-Качество видео: BDRip
Исходное видео: Blu-ray-Контейнер: MKV-Видео: AVC, 1152х648 (1,85:1), ~4300 kbps, 23.976 fps,
Аудио: AC-3, 448 kbps, Dolby Digital, 3/2 (L,C,R,l,r) + LFE ch, 48 KHz |Дубляж|
Аудио: AC-3, 448 kbps, Dolby Digital, 3/2 (L,C,R,l,r) + LFE ch, 48 KHz |Оригинал|
Формат субтитров: softsub (SRT)--

MediaInfox264

VIDEO ENCODING
------------------------------
Encoding video to: F:\Temp\0025.264
x264 Q17.9 1152x648 23.976fps (149341 frames)
avs4x264.exe: -L x264_64.exe --crf 17.9 --preset veryslow --profile high --level 4.1 --ref 10 --aq-mode 3 --aq-strength 0.85 --deblock -3:-2 --merange 32 --bframes 14 --direct spatial --threads 3 --subme 11 --no-mbtree --keyint 240 --slices 4 --colorprim bt709 --transfer bt709 --colormatrix bt709 --vbv-bufsize 50000 --vbv-maxrate 62500 --partitions p8x8,b8x8,i4x4,i8x8 --sar 1:1 --output "F:\Temp\0025.264" "F:\Temp\0025.avs"
raw [info]: 1152x648p 1:1 @ 24000/1001 fps (cfr)
x264 [info]: using SAR=1/1
x264 [info]: using cpu capabilities: MMX2 SSE2Fast LZCNT
x264 [info]: profile High, level 4.1
x264 [info]: frame I:1187 Avg QP:15.52 size: 95556
x264 [info]: frame P:29281 Avg QP:17.18 size: 43213
x264 [info]: frame B:118873 Avg QP:19.62 size: 16954
x264 [info]: consecutive B-frames: 1.3% 1.1% 3.5% 19.4% 13.5% 52.1% 3.7% 2.9% 0.7% 0.9% 0.2% 0.2% 0.1% 0.3% 0.1%
x264 [info]: mb I I16..4: 5.8% 80.3% 13.8%
x264 [info]: mb P I16..4: 0.8% 13.2% 1.1% P16..4: 29.5% 36.9% 14.4% 0.0% 0.0% skip: 4.1%
x264 [info]: mb B I16..4: 0.1% 1.1% 0.1% B16..8: 37.8% 23.4% 4.2% direct: 6.1% skip:27.2% L0:42.7% L1:43.7% BI:13.6%
x264 [info]: 8x8 transform intra:86.2% inter:59.5%
x264 [info]: coded y,uvDC,uvAC intra: 90.1% 85.4% 68.0% inter: 31.7% 19.5% 3.8%
x264 [info]: i16 v,h,dc,p: 52% 11% 10% 27%
x264 [info]: i8 v,h,dc,ddl,ddr,vr,hd,vl,hu: 10% 8% 12% 9% 12% 12% 12% 11% 14%
x264 [info]: i4 v,h,dc,ddl,ddr,vr,hd,vl,hu: 14% 9% 8% 8% 14% 13% 12% 10% 12%
x264 [info]: i8c dc,h,v,p: 42% 24% 19% 16%
x264 [info]: Weighted P-Frames: Y:2.2% UV:1.1%
x264 [info]: ref P L0: 43.8% 9.3% 17.6% 7.5% 5.9% 4.7% 3.9% 2.5% 2.2% 2.2% 0.1% 0.0%
x264 [info]: ref B L0: 73.9% 11.1% 5.6% 2.9% 2.2% 1.8% 1.5% 0.7% 0.3%
x264 [info]: ref B L1: 92.7% 7.3%
x264 [info]: kb/s:4359.27
Формат : Matroska
Версия формата : Version 4 / Version 2
Размер файла : 3,81 Гбайт
Продолжительность : 1 ч. 43 м.
Общий поток : 5258 Кбит/сек
Название фильма : Сити-Айленд / City Island (2009)__RG.Torrents.Ru
Дата кодирования : UTC 2015-02-14 15:37:49
Программа кодирования : mkvmerge v7.5.0 ('Glass Culture') 32bit built on Jan 10 2015 09:41:31
Библиотека кодирования : libebml v1.3.1 + libmatroska v1.4.2
_STATISTICS_WRITING_APP : mkvmerge v7.5.0 ('Glass Culture') 32bit built on Jan 10 2015 09:41:31
_STATISTICS_WRITING_DATE_UTC : 2015-02-14 15:37:49
_STATISTICS_TAGS : BPS DURATION NUMBER_OF_FRAMES NUMBER_OF_BYTES
DURATION : 01:38:47.469000000
NUMBER_OF_FRAMES : 1312
NUMBER_OF_BYTES : 51386
Видео
Идентификатор : 1
Формат : AVC
Формат/Информация : Advanced Video Codec
Профиль формата : High@L4.1
Параметр CABAC формата : Да
Параметр ReFrames формата : 10 кадров
Идентификатор кодека : V_MPEG4/ISO/AVC
Продолжительность : 1 ч. 43 м.
Битрейт : 4258 Кбит/сек
Ширина : 1152 пикселя
Высота : 648 пикселей
Соотношение сторон : 16:9
Частота кадров : 23,976 кадра/сек
Цветовое пространство : YUV
Субдискретизация насыщенности : 4:2:0
Битовая глубина : 8 бит
Тип развёртки : Прогрессивная
Бит/(Пиксели*Кадры) : 0.238
Размер потока : 3,09 Гбайт (81%)
Заголовок : City.Island_2009_BDRip_RG.tru_cw
Библиотека кодирования : x264 core 144 r2525 40bb568
Настройки программы : cabac=1 / ref=10 / deblock=1:-3:-2 / analyse=0x3:0x113 / me=umh / subme=11 / psy=1 / psy_rd=1.00:0.00 / mixed_ref=1 / me_range=32 / chroma_me=1 / trellis=2 / 8x8dct=1 / cqm=0 / deadzone=21,11 / fast_pskip=1 / chroma_qp_offset=-2 / threads=3 / lookahead_threads=1 / sliced_threads=0 / slices=4 / nr=0 / decimate=1 / interlaced=0 / bluray_compat=0 / constrained_intra=0 / bframes=14 / b_pyramid=2 / b_adapt=2 / b_bias=0 / direct=1 / weightb=1 / open_gop=0 / weightp=2 / keyint=240 / keyint_min=23 / scenecut=40 / intra_refresh=0 / rc_lookahead=60 / rc=crf / mbtree=0 / crf=17.9 / qcomp=0.60 / qpmin=0 / qpmax=69 / qpstep=4 / vbv_maxrate=62500 / vbv_bufsize=50000 / crf_max=0.0 / nal_hrd=none / filler=0 / ip_ratio=1.40 / pb_ratio=1.30 / aq=3:0.85
Язык : English
Default : Да
Forced : Нет
Основные цвета : BT.709-5, BT.1361, IEC 61966-2-4, SMPTE RP177
Характеристики трансфера : BT.709-5, BT.1361
Коэффициенты матрицы : BT.709-5, BT.1361, IEC 61966-2-4 709, SMPTE RP177
Аудио #1
Идентификатор : 2
Формат : AC-3
Формат/Информация : Audio Coding 3
Расширение режима : CM (complete main)
Параметр Endianness формата : Big
Идентификатор кодека : A_AC3
Продолжительность : 1 ч. 43 м.
Вид битрейта : Постоянный
Битрейт : 448 Кбит/сек
Каналы : 6 каналов
Расположение каналов : Front: L C R, Side: L R, LFE
Частота : 48,0 КГц
Битовая глубина : 16 бит
Метод сжатия : С потерями
Размер потока : 333 Мбайт (9%)
Заголовок : Дубляж
Язык : Russian
Default : Да
Forced : Нет
Аудио #2
Идентификатор : 3
Формат : AC-3
Формат/Информация : Audio Coding 3
Расширение режима : CM (complete main)
Параметр Endianness формата : Big
Идентификатор кодека : A_AC3
Продолжительность : 1 ч. 43 м.
Вид битрейта : Постоянный
Битрейт : 448 Кбит/сек
Каналы : 6 каналов
Расположение каналов : Front: L C R, Side: L R, LFE
Частота : 48,0 КГц
Битовая глубина : 16 бит
Метод сжатия : С потерями
Размер потока : 333 Мбайт (9%)
Заголовок : Оригинал / Original
Язык : English
Default : Нет
Forced : Нет
Текст #1
Идентификатор : 4
Формат : UTF-8
Идентификатор кодека : S_TEXT/UTF8
Идентификатор кодека/Информация : UTF-8 Plain Text
Язык : Russian
Default : Да
Forced : Нет
Текст #2
Идентификатор : 5
Формат : UTF-8
Идентификатор кодека : S_TEXT/UTF8
Идентификатор кодека/Информация : UTF-8 Plain Text
Язык : English
Default : Нет
Forced : Нет
Меню
00:00:00.000 : en:Main Titles
00:05:02.510 : en:Family Togetherness
00:13:38.025 : en:Most Personal Secrets
00:19:31.420 : en:Old Friends
00:28:54.232 : en:Spending Quality Time
00:43:46.707 : en:Revealing Discoveries
00:49:31.301 : en:"I'll Take Tony"
01:00:21.701 : en:The Audition
01:10:39.360 : en:An Announcement
01:20:00.337 : en:Hell's Half Acre
01:27:13.353 : en:Cards On The Table
01:38:58.724 : en:End CreditsСкриншотыСравнение с исходником BD- Rip
[Профиль] [ЛС]

Создавать темы 06-Авг-2015 22:44 (спустя 5 месяцев 19 дней)

Топик был перенесен из форума Фильмы до 2014 года в форум Фильмы до 2012 года
sergej644
 

Создавать темы 12-Июн-2016 08:48 (спустя 1 год 3 месяца)

Топик был перенесен из форума Фильмы 2011 года в форум Фильмы 2009 года
Russian Mafia
 
Кто просматривает тему:

Показать сообщения:    

Текущее время: Сегодня 11:57

Часовой пояс: GMT



Вы не можете начинать темы
Вы не можете отвечать на сообщения
Вы не можете редактировать свои сообщения
Вы не можете удалять свои сообщения
Вы не можете голосовать в опросах
Вы не можете прикреплять файлы к сообщениям
Вы не можете скачивать файлы