Системы управления / Кризис под контролем / Crisis Control (1-2, 4-6 из 6 серий) [Документальный, DVB-S2 Remux 1080i] VO

 
Автор Сообщение

TorrentFilm ®

Пол:

Стаж: 2 года

Сообщений: 7741



Награды: Нет

Торрент-статистика

Создавать темы 05-Фев-2015 00:00

[Цитировать]

Системы управления (Кризис под контролем)
Crisis Control
-
Год выпуска: 2012
Страна: США
Жанр: Документальный
Продолжительность: 5 x ~ 00:44:00
Перевод: Профессиональный (одноголосый закадровый) VSI Москва
Субтитры: Нет-Производство: Discovery Cannel- -Семпл: Скачать
Рейтинг: Нет
Все раздачи: Кризис под контролем-Описание:
Программа «Системы управления» предлагает посмотреть, как устроены и как работают крупнейшие транспортные узлы, спасательные станции и развлекательные центры – словом, гигантские объекты инфраструктуры, в которых задействованы сотни механизмов и десятки тысяч человек. Шесть серий программы приглашают на шесть увлекательных экскурсий. Зрители побывают в международном аэропорту Хатсфилд-Джексон Атланта, который является самым загруженным в мире по пассажирскому трафику и по взлетам-посадкам, а также на Центральном вокзале Нью-Йорка, который по числу платформ и путей превосходит любой другой вокзал мира. Кроме того, вы удивитесь тому, сколько судов принимает порт Лос-Анджелеса, совершите поездку по Панамскому каналу, побываете под гигантским куполом цирка Дю Солей и увидите, как работают экстренные службы Вашингтона.-Формат: DVB-S2 Remux 1080i
Видео кодек: AVC
Аудио кодеk: AC3
Видео: 1920x1080 (16:9), 25 fps, AVC, ~7500 Кбит/сек
Аудио: Russian: AC3 5.1 (48 kHz / 384 kbps / 16 bit) (Одноголосый закадровый)
English: AC3 5.1 (48 kHz / 384 kbps / 16 bit)
-

Список серий:


01. Аэропорт Хартсфилд-Джексон. Атланта-02. Панамский канал. Панама-03. Пожарная бригада и скорая помощь в Вашингтоне-04. Порт Лос-Анджелеса-05. Центральный вокзал. Нью-Йорк-06. Cirque du Soleil

MediaInfo

Общее
Уникальный идентификатор                 : 179602717797766159985170453969126901041 (0x871E39A8AC70C722BB368D8EF3814531)
Полное имя                               : Crisis Control [HDTV.1080i]\05. Центральный вокзал. Нью-Йорк [HDTV.1080i_RUS-ENG]_BAG.mkv
Формат                                   : Matroska
Версия формата                           : Version 4 / Version 2
Размер файла                             : 2,76 Гбайт
Продолжительность                        : 44 м.
Общий поток                              : 8970 Кбит/сек
Дата кодирования                         : UTC 2015-02-04 12:57:29
Программа кодирования                    : mkvmerge v7.5.0 ('Glass Culture') 64bit built on Jan  4 2015 16:48:44
Библиотека кодирования                   : libebml v1.3.1 + libmatroska v1.4.2
DURATION                                 : 00:44:05.856000000
NUMBER_OF_FRAMES                         : 82683
NUMBER_OF_BYTES                          : 127001088
_STATISTICS_WRITING_APP                  : mkvmerge v7.5.0 ('Glass Culture') 64bit built on Jan  4 2015 16:48:44
_STATISTICS_WRITING_DATE_UTC             : 2015-02-04 12:57:29
_STATISTICS_TAGS                         : BPS DURATION NUMBER_OF_FRAMES NUMBER_OF_BYTES
Видео
Идентификатор                            : 1
Формат                                   : AVC
Формат/Информация                        : Advanced Video Codec
Профиль формата                          : High@L4.0
Параметр CABAC формата                   : Да
Параметр ReFrames формата                : 3 кадра
Идентификатор кодека                     : V_MPEG4/ISO/AVC
Продолжительность                        : 44 м.
Битрейт                                  : 8023 Кбит/сек
Ширина                                   : 1920 пикселей
Высота                                   : 1080 пикселей
Соотношение сторон                       : 16:9
Режим частоты кадров                     : Постоянный
Частота кадров                           : 25,000 кадров/сек
Стандарт вещания                         : Component
Цветовое пространство                    : YUV
Субдискретизация насыщенности            : 4:2:0
Битовая глубина                          : 8 бит
Тип развёртки                            : Чересстрочная
Порядок развёртки                        : Верхнее поле первое
Бит/(Пиксели*Кадры)                      : 0.155
Размер потока                            : 2,47 Гбайт (89%)
Заголовок                                : Центральный вокзал. Нью-Йорк
Язык                                     : English
Default                                  : Да
Forced                                   : Да
Основные цвета                           : BT.709
Характеристики трансфера                 : BT.709
Коэффициенты матрицы                     : BT.709
colour_range                             : Limited
Аудио #1
Идентификатор                            : 2
Формат                                   : AC-3
Формат/Информация                        : Audio Coding 3
Расширение режима                        : CM (complete main)
Параметр Endianness формата              : Big
Идентификатор кодека                     : A_AC3
Продолжительность                        : 44 м.
Вид битрейта                             : Постоянный
Битрейт                                  : 384 Кбит/сек
Каналы                                   : 6 каналов
Расположение каналов                     : Front: L C R, Side: L R, LFE
Частота                                  : 48,0 КГц
Битовая глубина                          : 16 бит
Метод сжатия                             : С потерями
Размер потока                            : 121 Мбайт (4%)
Заголовок                                : Профессиональный (одноголосый)
Язык                                     : Russian
Default                                  : Да
Forced                                   : Да
Аудио #2
Идентификатор                            : 3
Формат                                   : AC-3
Формат/Информация                        : Audio Coding 3
Расширение режима                        : CM (complete main)
Параметр Endianness формата              : Big
Идентификатор кодека                     : A_AC3
Продолжительность                        : 44 м.
Вид битрейта                             : Постоянный
Битрейт                                  : 384 Кбит/сек
Каналы                                   : 6 каналов
Расположение каналов                     : Front: L C R, Side: L R, LFE
Частота                                  : 48,0 КГц
Битовая глубина                          : 16 бит
Метод сжатия                             : С потерями
Размер потока                            : 121 Мбайт (4%)
Заголовок                                : Original
Язык                                     : English
Default                                  : Нет
Forced                                   : Нет

Скриншоты:

-Внимание! Раздача не полная! Возможно в будущем будет обновление.
Подробности в первом сообщении раздачи-
[Профиль] [ЛС]
Показать сообщения:    

Текущее время: Сегодня 18:38

Часовой пояс: GMT



Вы не можете начинать темы
Вы не можете отвечать на сообщения
Вы не можете редактировать свои сообщения
Вы не можете удалять свои сообщения
Вы не можете голосовать в опросах
Вы не можете прикреплять файлы к сообщениям
Вы не можете скачивать файлы