Сирена «Миссисипи» / La sirène du Mississipi (1969) BDRip 720p

 
Автор Сообщение

sergej644 ®

Пол:

Стаж: 4 года 11 месяцев

Сообщений: 6035

Откуда: Soviet Union



Награды: Нет

Торрент-статистика

Создавать темы 16-Июл-2015 11:22

[Цитировать]

Название: Сирена «Миссисипи»
Оригинальное название: La sirène du Mississipi
Год выпуска: 1969
Страна: Франция, Италия
Жанр: драма, мелодрама, криминал
Продолжительность: 02:03:19
Перевод: профессиональный многоголосый
Режиссёр: Франсуа Трюффо
В ролях: Жан-Поль Бельмондо, Катрин Денёв, Нелли Боржо, Мартина Феррьер, Марсель Бербер, Ив Друэ, Мишель Буке, Ролан Тено
Описание: На далёкую колонию Франции у берегов Африки богатый плантатор Луи Макс приглашает невесту, найденную по переписке, чтобы создать семью. Вскоре после заключения брака Жюли исчезает с большей частью состояния Луи. Становится очевидно, что красавица оказалась самозванкой. По случайности, обманутому мужу удается отыскать во Франции жену. Луи все ещё любит Мерион и прощает ей всё. Но испытывает ли Мерион такие же глубокие чувства? Или она все ещё интересуется исключительно его деньгами?... Фильм снят по мотивам романа Корнелла Вулрича «Соблазн» (Waltz Into Darkness, 1947).

Качество: BDRip 720p Сравнение с исходником
Формат: MKV
Видео: MPEG-4 AVC, 4178 Кбит/с, 1280x544, 23,976 кадра/с
Аудио 1: русский, AC3, 192 kbps, 2 ch, 48 kHz [профессиональный многоголосый]
Аудио 2: французский, AC3, 192 kbps, 1 ch, 48 kHz [оригинал]
Субтитры: английские (хардсабы)

Инфо-файл

Общее
Уникальный идентификатор : 186838993405183643579003522490722678983 (0x8C8FE1977DBAE7848BF90038EA4BF8C7)
Полное имя : D:VideoСирена Миссисипи.1969.BDRip.720p.mkv
Формат : Matroska
Версия формата : Version 4 / Version 2
Размер файла : 4,01 Гбайт
Продолжительность : 2 ч. 3 м.
Общий поток : 4655 Кбит/сек
Название фильма : BDRip -- STaranko
Дата кодирования : UTC 2015-07-16 06:22:11
Программа кодирования : mkvmerge v7.9.0 ('Birds') 64bit
Библиотека кодирования : libebml v1.3.1 + libmatroska v1.4.2
_STATISTICS_WRITING_APP : mkvmerge v7.9.0 ('Birds') 64bit
_STATISTICS_WRITING_DATE_UTC : 2015-07-16 06:22:11
_STATISTICS_TAGS : BPS DURATION NUMBER_OF_FRAMES NUMBER_OF_BYTES
DURATION : 02:03:19.264000000
NUMBER_OF_FRAMES : 231227
NUMBER_OF_BYTES : 177582336
Видео
Идентификатор : 1
Формат : AVC
Формат/Информация : Advanced Video Codec
Профиль формата : High@L4.1
Параметр CABAC формата : Да
Параметр ReFrames формата : 9 кадров
Идентификатор кодека : V_MPEG4/ISO/AVC
Продолжительность : 2 ч. 3 м.
Битрейт : 4178 Кбит/сек
Ширина : 1280 пикселей
Высота : 544 пикселя
Соотношение сторон : 2,35:1
Режим частоты кадров : Постоянный
Частота кадров : 23,976 кадра/сек
Цветовое пространство : YUV
Субдискретизация насыщенности : 4:2:0
Битовая глубина : 8 бит
Тип развёртки : Прогрессивная
Бит/(Пиксели*Кадры) : 0.250
Размер потока : 3,60 Гбайт (90%)
Библиотека кодирования : x264 core 146 r2538 121396c
Настройки программы : cabac=1 / ref=9 / deblock=1:-3:-3 / analyse=0x3:0x113 / me=umh / subme=10 / psy=1 / psy_rd=1.00:0.15 / mixed_ref=1 / me_range=32 / chroma_me=1 / trellis=2 / 8x8dct=1 / cqm=0 / deadzone=21,11 / fast_pskip=1 / chroma_qp_offset=-3 / threads=6 / lookahead_threads=1 / sliced_threads=0 / nr=0 / decimate=1 / interlaced=0 / bluray_compat=0 / constrained_intra=0 / bframes=11 / b_pyramid=2 / b_adapt=2 / b_bias=0 / direct=1 / weightb=1 / open_gop=0 / weightp=2 / keyint=230 / keyint_min=23 / scenecut=40 / intra_refresh=0 / rc_lookahead=40 / rc=crf / mbtree=0 / crf=20.0 / qcomp=0.60 / qpmin=0 / qpmax=69 / qpstep=4 / vbv_maxrate=40000 / vbv_bufsize=50000 / crf_max=0.0 / nal_hrd=none / filler=0 / ip_ratio=1.40 / pb_ratio=1.30 / aq=1:1.00
Язык : French
Default : Да
Forced : Нет
DURATION : 02:03:19.225000000
NUMBER_OF_FRAMES : 177404
NUMBER_OF_BYTES : 3948370805
_STATISTICS_WRITING_APP : mkvmerge v7.9.0 ('Birds') 64bit
_STATISTICS_WRITING_DATE_UTC : 2015-07-16 06:22:11
_STATISTICS_TAGS : BPS DURATION NUMBER_OF_FRAMES NUMBER_OF_BYTES
Аудио #1
Идентификатор : 2
Формат : AC-3
Формат/Информация : Audio Coding 3
Расширение режима : CM (complete main)
Параметр Endianness формата : Big
Идентификатор кодека : A_AC3
Продолжительность : 2 ч. 3 м.
Вид битрейта : Постоянный
Битрейт : 192 Кбит/сек
Каналы : 2 канала
Расположение каналов : Front: L R
Частота : 48,0 КГц
Битовая глубина : 16 бит
Метод сжатия : С потерями
Размер потока : 169 Мбайт (4%)
Заголовок : MVO (DVD Магия)
Язык : Russian
Default : Да
Forced : Нет
Аудио #2
Идентификатор : 3
Формат : AC-3
Формат/Информация : Audio Coding 3
Расширение режима : CM (complete main)
Параметр Endianness формата : Big
Идентификатор кодека : A_AC3
Продолжительность : 2 ч. 3 м.
Вид битрейта : Постоянный
Битрейт : 192 Кбит/сек
Каналы : 1 канал
Расположение каналов : Front: C
Частота : 48,0 КГц
Битовая глубина : 16 бит
Метод сжатия : С потерями
Размер потока : 169 Мбайт (4%)
Заголовок : Original
Язык : French
Default : Нет
Forced : Нет

Скриншоты

[Профиль] [ЛС]

Создавать темы 06-Авг-2015 22:23 (спустя 21 день)

Топик был перенесен из форума Фильмы до 2014 года в форум Фильмы до 2012 года
sergej644
 
Показать сообщения:    

Текущее время: Сегодня 11:56

Часовой пояс: GMT



Вы не можете начинать темы
Вы не можете отвечать на сообщения
Вы не можете редактировать свои сообщения
Вы не можете удалять свои сообщения
Вы не можете голосовать в опросах
Вы не можете прикреплять файлы к сообщениям
Вы не можете скачивать файлы