Синий бархат / Blue Velvet (1986) BDRip 1080p от NNNB | P2,A

 
Автор Сообщение

sergej644 ®

Пол:

Стаж: 4 года 11 месяцев

Сообщений: 6041

Откуда: Soviet Union



Награды: Нет

Торрент-статистика

Создавать темы 18-Июн-2015 20:09

[Цитировать]

Синий бархат / Blue Velvet
«It's a strange world»
Русское название: Синий бархат
Оригинальное название: Blue Velvet
Год выпуска: 1986
Жанр: триллер, драма, криминал, детектив
Выпущено: США
Режиссер: Дэвид Линч
В ролях: Изабелла Росселлини , Кайл МакЛоклен , Деннис Хоппер , Лора Дерн , Хоуп Лэнг , Дин Стокуэлл , Джордж Дикерсон , Присцилла Пойнтер , Фрэнсис Бэй , Джек Харви , Кен Стовиц , Брэд Дуриф
Перевод: Профессиональный (двухголосый), Авторский (одноголосый)

Сюжет фильма:
В связи с болезнью отца Джеффри Бомон был вынужден на время оставить столичный колледж и вернуться в родной городок, и ему пришлось пережить целый ряд загадочных и страшных событий. Все началось с того, что неподалеку от дома он нашел человеческое ухо, которое сдал в полицию инспектору Уильямсу...

Качество: BDRip 1080p
Формат: AVC (библиотека кодирования x.264)
Контейнер (Расширение): MKV
Видео: 1918x816 (2.35:1), 14000 Кбит/сек, 23,976 кадр/сек, 0,373 Бит/[Пиксели*Кадры]
Аудио №1: русский / AC3 / 5.1 / 48 kHz / 384 kbps / 16 bit |Профессиональный двухголосый закадровый, НТВ+|
Аудио №2: русский / AC3 / 2.0 / 48 kHz / 192 kbps / 16 bit | Авторский, А. Михалёв|
Аудио №3: русский / AC3 / 5.1 / 48 kHz / 640 kbps / 16 bit |Авторский, С. Визгунов|
Аудио №4: русский / MP3 / 2.0 / 48 kHz / 320 kbps / |Профессиональный двухголосый закадровый, ТВ6|
Аудио №5: английский / AC3 / 5.1 / 48 kHz / 640 kbps / 16 bit
Субтитры: русские, русские (KayGees), английские
Навигация по главам(Чаптеры): есть
Продолжительность: 02:00:32
Видеоряд CtrlHD

MediaInfo

Format : Matroska
Format version : Version 2
File size : 13.6 GiB
Duration : 2h 0mn
Overall bit rate : 16.2 Mbps
Movie name : Sinij barhat.(1986).BDRip.1080.[denis100]
Encoded date : UTC 2015-06-07 07:07:18
Writing application : mkvmerge v5.8.0 ('No Sleep / Pillow') built on Sep 2 2012 15:37:04
Writing library : libebml v1.2.3 + libmatroska v1.3.0
Video
ID : 1
Format : AVC
Format/Info : Advanced Video Codec
Format profile : High@L4.1
Format settings, CABAC : Yes
Format settings, ReFrames : 5 frames
Codec ID : V_MPEG4/ISO/AVC
Duration : 2h 0mn
Bit rate : 14.0 Mbps
Width : 1 918 pixels
Height : 816 pixels
Display aspect ratio : 2.35:1
Frame rate : 23.976 fps
Color space : YUV
Chroma subsampling : 4:2:0
Bit depth : 8 bits
Scan type : Progressive
Bits/(Pixel*Frame) : 0.373
Stream size : 11.5 GiB (85%)
Title : Sinij barhat.(1986).BDRip.1080.[denis100]
Writing library : x264 core 119 r2106 07efeb4
Encoding settings : cabac=1 / ref=5 / deblock=1:-3:-3 / analyse=0x3:0x133 / me=umh / subme=10 / psy=1 / psy_rd=1.05:0.00 / mixed_ref=1 / me_range=48 / chroma_me=1 / trellis=2 / 8x8dct=1 / cqm=0 / deadzone=21,11 / fast_pskip=0 / chroma_qp_offset=-2 / threads=18 / sliced_threads=0 / nr=0 / decimate=1 / interlaced=0 / bluray_compat=0 / constrained_intra=0 / bframes=8 / b_pyramid=2 / b_adapt=2 / b_bias=0 / direct=3 / weightb=1 / open_gop=0 / weightp=2 / keyint=250 / keyint_min=23 / scenecut=40 / intra_refresh=0 / rc_lookahead=60 / rc=2pass / mbtree=1 / bitrate=14000 / ratetol=1.0 / qcomp=0.70 / qpmin=0 / qpmax=69 / qpstep=4 / cplxblur=20.0 / qblur=0.5 / vbv_maxrate=40000 / vbv_bufsize=30000 / nal_hrd=none / ip_ratio=1.40 / aq=1:0.70
Language : English
Default : Yes
Forced : No
Audio #1
ID : 2
Format : AC-3
Format/Info : Audio Coding 3
Mode extension : CM (complete main)
Codec ID : A_AC3
Duration : 2h 0mn
Bit rate mode : Constant
Bit rate : 384 Kbps
Channel(s) : 6 channels
Channel positions : Front: L C R, Side: L R, LFE
Sampling rate : 48.0 KHz
Bit depth : 16 bits
Compression mode : Lossy
Stream size : 331 MiB (2%)
Title : DVO, NTV+
Language : Russian
Default : Yes
Forced : No
Audio #2
ID : 3
Format : AC-3
Format/Info : Audio Coding 3
Mode extension : CM (complete main)
Codec ID : A_AC3
Duration : 2h 0mn
Bit rate mode : Constant
Bit rate : 192 Kbps
Channel(s) : 2 channels
Channel positions : Front: L R
Sampling rate : 48.0 KHz
Bit depth : 16 bits
Compression mode : Lossy
Stream size : 166 MiB (1%)
Title : VO, Mihalev
Language : Russian
Default : No
Forced : No
Audio #3
ID : 4
Format : AC-3
Format/Info : Audio Coding 3
Mode extension : CM (complete main)
Codec ID : A_AC3
Duration : 2h 0mn
Bit rate mode : Constant
Bit rate : 640 Kbps
Channel(s) : 6 channels
Channel positions : Front: L C R, Side: L R, LFE
Sampling rate : 48.0 KHz
Bit depth : 16 bits
Compression mode : Lossy
Stream size : 552 MiB (4%)
Title : VO, Vizgunov
Language : Russian
Default : No
Forced : No
Audio #4
ID : 5
Format : MPEG Audio
Format version : Version 1
Format profile : Layer 3
Mode : Joint stereo
Mode extension : MS Stereo
Codec ID : A_MPEG/L3
Codec ID/Hint : MP3
Duration : 2h 1mn
Bit rate mode : Constant
Bit rate : 320 Kbps
Channel(s) : 2 channels
Sampling rate : 48.0 KHz
Compression mode : Lossy
Stream size : 277 MiB (2%)
Title : DVO, ТВ6
Writing library : LAME3.98
Encoding settings : -m j -V 4 -q 3 -lowpass 20.5
Language : Russian
Default : No
Forced : No
Audio #5
ID : 6
Format : AC-3
Format/Info : Audio Coding 3
Mode extension : CM (complete main)
Codec ID : A_AC3
Duration : 2h 0mn
Bit rate mode : Constant
Bit rate : 640 Kbps
Channel(s) : 6 channels
Channel positions : Front: L C R, Side: L R, LFE
Sampling rate : 48.0 KHz
Bit depth : 16 bits
Compression mode : Lossy
Stream size : 552 MiB (4%)
Language : English
Default : No
Forced : No
Text #1
ID : 7
Format : UTF-8
Codec ID : S_TEXT/UTF8
Codec ID/Info : UTF-8 Plain Text
Language : Russian
Default : No
Forced : No
Text #2
ID : 8
Format : UTF-8
Codec ID : S_TEXT/UTF8
Codec ID/Info : UTF-8 Plain Text
Title : KayGees
Language : Russian
Default : No
Forced : No
Text #3
ID : 9
Format : UTF-8
Codec ID : S_TEXT/UTF8
Codec ID/Info : UTF-8 Plain Text
Language : English
Default : No
Forced : No
Menu
00:00:00.000 : en:Logos/Title/Credits
00:01:48.608 : en:"Lumberton, USA"
00:04:53.335 : en:A Gruesome Discovery
00:09:10.008 : en:Curious Conversation
00:15:55.329 : en:Planning Over Lunch
00:19:52.066 : en:"Only the Bug Man"
00:24:36.350 : en:"So What's Next?"
00:27:31.108 : en:"The Blue Lady"
00:29:59.131 : en:Breaking and Entering
00:34:39.953 : en:Caught in the Closet
00:41:39.247 : en:Crazy Frank
00:47:41.776 : en:"Hold Me!"
00:53:06.433 : en:"A Strange World"
00:57:59.017 : en:"The Slow Club"
01:02:29.996 : en:Staking Out Frank's
01:06:37.535 : en:"Are You a Bad Boy?"
01:10:51.164 : en:"Go for a Ride?"
01:13:15.683 : en:Beer at Ben's
01:21:16.705 : en:No Clowning Around
01:27:07.722 : en:Exposing the Truth
01:34:12.355 : en:"Fatherly Advice"
01:36:44.173 : en:Falling in Love
01:39:42.852 : en:Intercepted Date
01:42:29.435 : en:"What's Going On?"
01:46:28.757 : en:Double Murder
01:50:21.031 : en:"Hey, Neighbor!"
01:55:28.171 : en:Back to Normal
01:59:14.439 : en:End Credits

Скриншоты

[Профиль] [ЛС]
Кто просматривает тему:

Показать сообщения:    

Текущее время: Сегодня 06:07

Часовой пояс: GMT



Вы не можете начинать темы
Вы не можете отвечать на сообщения
Вы не можете редактировать свои сообщения
Вы не можете удалять свои сообщения
Вы не можете голосовать в опросах
Вы не можете прикреплять файлы к сообщениям
Вы не можете скачивать файлы