Синдром Петрушки (Елена Хазанова) [2015, Россия, Швейцария, Германия, драма, WEB-DL 1080p] + Original Rus

 
Автор Сообщение

TorrentFilm ®

Пол:

Стаж: 2 года

Сообщений: 7741



Награды: Нет

Торрент-статистика

Создавать темы 08-Дек-2015 00:11

[Цитировать]

Синдром Петрушки
Страна: Россия, Швейцария, Германия
Студия: Третий Рим
Жанр: драма
Год выпуска: 2015
Продолжительность: 01:37:50
Перевод: Не требуется
Cубтитры: нет
Оригинальная аудиодорожка: русский
Режиссер: Елена Хазанова
В ролях: Евгений Миронов, Чулпан Хаматова, Мераб Нинидзе, Зураб Кипшидзе, Александр Кузнецов, Алина Гвасалия, Алексей Любимов, Владимир Селезнев, Юлия Марченко, Эра Зиганшина
Описание: Петр страстно любит свою жену Лизу и фанатично предан своей работе. Он создает марионеток. Главным его шедевром становится точная копия Лизы. Он одержим своим творением, грань между вымыслом и реальностью, куклой и живой женщиной стирается в его воображении. Ведь самая увлекательная игрушка — это чужая жизнь…
Кинопоиск
Sample
Тип релиза: WEB-DL 1080p
Контейнер: MKV
Видео: MPEG4 AVC Video, H264, 16:9, 1920x802, 25 fps, 4326 kbps
Аудио: Russian (AC3, 6 ch, 384 kbps, 16 bits, 48.0 KHz) - оригинал

MediaInfo

General
Unique ID : 201045865472748177730739157345988953678 (0x97400676D8296F3B879C253D4C92C64E)
Complete name : L:\Синдром Петрушки 2015 WEB-DL 1080p.mkv
Format : Matroska
Format version : Version 4 / Version 2
File size : 3.28 GiB
Duration : 1h 37mn
Overall bit rate : 4 805 Kbps
Encoded date : UTC 2015-12-04 23:11:17
Writing application : mkvmerge v8.3.0 ('Over the Horizon') 64bit
Writing library : libebml v1.3.1 + libmatroska v1.4.2
DURATION : 01:37:49.984000000
NUMBER_OF_FRAMES : 183437
NUMBER_OF_BYTES : 281759232
_STATISTICS_WRITING_APP : mkvmerge v8.3.0 ('Over the Horizon') 64bit
_STATISTICS_WRITING_DATE_UTC : 2015-12-04 23:11:17
_STATISTICS_TAGS : BPS DURATION NUMBER_OF_FRAMES NUMBER_OF_BYTES
Video
ID : 1
Format : AVC
Format/Info : Advanced Video Codec
Format profile : High@L4.0
Format settings, CABAC : Yes
Format settings, ReFrames : 5 frames
Codec ID : V_MPEG4/ISO/AVC
Duration : 1h 37mn
Bit rate : 4 326 Kbps
Width : 1 920 pixels
Height : 802 pixels
Display aspect ratio : 2.40:1
Frame rate mode : Constant
Frame rate : 25.000 fps
Color space : YUV
Chroma subsampling : 4:2:0
Bit depth : 8 bits
Scan type : Progressive
Bits/(Pixel*Frame) : 0.112
Stream size : 2.96 GiB (90%)
Language : English
Default : Yes
Forced : No
Color primaries : BT.709
Transfer characteristics : BT.709
Matrix coefficients : BT.709
Audio
ID : 2
Format : AC-3
Format/Info : Audio Coding 3
Mode extension : CM (complete main)
Format settings, Endianness : Big
Codec ID : A_AC3
Duration : 1h 37mn
Bit rate mode : Constant
Bit rate : 384 Kbps
Channel count : 6 channels
Channel positions : Front: L C R, Side: L R, LFE
Sampling rate : 48.0 KHz
Bit depth : 16 bits
Compression mode : Lossy
Stream size : 269 MiB (8%)
Language : Russian
Default : Yes
Forced : No
Menu
00:00:00.000 : en:Глава 1
00:05:16.000 : en:Глава 2
00:11:12.000 : en:Глава 3
00:16:27.000 : en:Глава 4
00:22:05.000 : en:Глава 5
00:27:36.000 : en:Глава 6
00:33:10.000 : en:Глава 7
00:39:05.000 : en:Глава 8
00:44:24.000 : en:Глава 9
00:49:25.000 : en:Глава 10
00:55:22.000 : en:Глава 11
01:00:44.000 : en:Глава 12
01:05:54.000 : en:Глава 13
01:11:15.000 : en:Глава 14
01:17:43.000 : en:Глава 15
01:23:12.000 : en:Глава 16
01:29:43.000 : en:Глава 17

Скриншоты

[Профиль] [ЛС]
Показать сообщения:    

Текущее время: Сегодня 16:48

Часовой пояс: GMT



Вы не можете начинать темы
Вы не можете отвечать на сообщения
Вы не можете редактировать свои сообщения
Вы не можете удалять свои сообщения
Вы не можете голосовать в опросах
Вы не можете прикреплять файлы к сообщениям
Вы не можете скачивать файлы