Синдром недосказанности (Сергей Лялин) [2015, Россия, мелодрама, HDTV 1080i] + Original Rus

 
Автор Сообщение

TorrentFilm ®

Пол:

Стаж: 2 года

Сообщений: 7741



Награды: Нет

Торрент-статистика

Создавать темы 26-Янв-2016 00:08

[Цитировать]

Синдром недосказанности
Страна: Россия
Студия: кинокомпания Русское
Жанр: мелодрама
Год выпуска: 2015
Продолжительность: 01:32:54
Перевод: Не требуется
Cубтитры: нет
Оригинальная аудиодорожка: русский
Режиссёр: Сергей Лялин
В ролях: Ольга Павловец, Юрий Батурин, Елена Корикова, Виталий Кудрявцев, Мария Палей, Данила Шевченко, Николай Лунин
Описание: Антон и Юля собираются пожениться и устраивают вечер знакомства для своих родителей. Неожиданно выясняется, что Лариса, мать Антона, и Владимир, отец Юли, в юности были знакомы друг с другом. Более того, скромная и неприметная Лариса была влюблена в обеспеченного и высокомерного Владимира и сама стала инициатором их близости…
Теперь Владимир — успешный бизнесмен, на его попечении любимая дочь Юля и жена-инвалид. Энергичный и здоровый мужчина, он с интересом смотрит на милую и обаятельную Ларису, неожиданно вновь возникшую в его жизни…
Встреча с Владимиром всколыхнула давние чувства Ларисы. Не в силах справиться с собой, Лариса обращается за помощью к психологу. Психолог называет её состояние «синдромом недосказанности» и предлагает единственно верный способ избавиться от него — переспать с бывшим любовником…

Sample
Тип релиза: HDTV 1080i
Контейнер: TS
Видео: MPEG4 AVC Video, H264, 16:9, 1920x1080, 25 fps, 7867 kbps
Аудио: Russian (MP2, 2 ch, 192 kbps, 16 bits, 48.0 KHz) - оригинал

MediaInfo

General
ID : 1 (0x1)
Complete name : K:\Синдром недосказанности 2015 HDTV 1080i.ts
Format : MPEG-TS
File size : 5.50 GiB
Duration : 1h 32mn
Overall bit rate mode : Variable
Overall bit rate : 8 480 Kbps
Video
ID : 2911 (0xB5F)
Menu ID : 1009 (0x3F1)
Format : AVC
Format/Info : Advanced Video Codec
Format profile : High@L4.0
Format settings, CABAC : Yes
Format settings, ReFrames : 4 frames
Codec ID : 27
Duration : 1h 32mn
Bit rate : 7 867 Kbps
Width : 1 920 pixels
Height : 1 080 pixels
Display aspect ratio : 16:9
Frame rate : 25.000 fps
Color space : YUV
Chroma subsampling : 4:2:0
Bit depth : 8 bits
Scan type : MBAFF
Bits/(Pixel*Frame) : 0.152
Stream size : 5.11 GiB (93%)
Audio
ID : 2912 (0xB60)
Menu ID : 1009 (0x3F1)
Format : MPEG Audio
Format version : Version 1
Format profile : Layer 2
Codec ID : 3
Duration : 1h 32mn
Bit rate mode : Constant
Bit rate : 192 Kbps
Channel count : 2 channels
Sampling rate : 48.0 KHz
Compression mode : Lossy
Stream size : 128 MiB (2%)
Language : Russian

Скриншоты

[Профиль] [ЛС]
Показать сообщения:    

Текущее время: Сегодня 16:36

Часовой пояс: GMT



Вы не можете начинать темы
Вы не можете отвечать на сообщения
Вы не можете редактировать свои сообщения
Вы не можете удалять свои сообщения
Вы не можете голосовать в опросах
Вы не можете прикреплять файлы к сообщениям
Вы не можете скачивать файлы