Симпсоны / The Simpsons [S03] (1991-1992) DVDRip-AVC

 
Автор Сообщение

BOSS ®

Пол:

Стаж: 2 года 2 месяца

Сообщений: 3751

Откуда: ODESSA



Награды: 20 (Подробнее)

Mega Releaser 2 (Количество: 1) Mega Releaser 1 (Количество: 1) Top Releaser 3 (Количество: 1)
Торрент-статистика

Создавать темы 27-Авг-2015 05:20

[Цитировать]

Информация о фильме
Название: Симпсоны
Оригинальное название: The Simpsons
Год выхода: 1991-1992
Жанр: мультфильм, комедия
Режиссер: Марк Керклэнд, Стивен Дин Мур, Боб Андерсон
В ролях: Дэн Кастелланета,Джули Кавнер,Нэнси Картрайт,Ярдли Смит,Гарри Ширер,Хэнк Азария,Памела Хейден,Тресс МакНилл,Карл Видерготт,Мэгги Росвэлл
О фильме:
«Симпсоны» (англ. The Simpsons) — самый длинный мультсериал в истории американского телевидения, длящийся 25 сезонов. Первая мини-серия «Good night» была показана в «Шоу Трейси Ульман» 19 апреля 1987 года. Демонстрация полноценных серий мультсериала началась 17 декабря 1989 года на канале FOX. Выпускается «Gracie Films» для кинокомпании «20th Century Fox». Мультсериал в настоящее время известен телезрителям более чем 100 стран.
Это насыщенное сатирой (в том числе социальной) шоу высмеивает многие клише и стереотипы, в частности — стиль жизни «среднестатистического американца», особенности мировых культур в целом, знаменитостей и даже само телевидение и телеканал «Fox»; не стесняется затрагивать такие скользкие вопросы, как политика и религия: в частности, поднимались темы однополых браков, борьбы дарвинистов и креационистов, войны в Ираке.

Страна: США
Студия: FOX
Продолжительность: 24x - 00:23:00
Перевод: профессиональный (многоголосый, закадровый) (Ren-TV)
Файл
Качество: DVDRip-AVC
Видео: 720x544-720х522 (4:3), 23.976 fps, x264, ~1850-1905 kbps avg, 0.159-0.205 bit/pixel
Звук: (MVO) 48 kHz, AC3 Dolby Digital, 2/0 (L,R) ch, 192.00 kbps avg

MediaInfo:

General
Unique ID : 198281463712540208819714217086853662159 (0x952B9EEF3EC1F058AE0047D60D5945CF)
Complete name : D:InstallМоИ Рипы by aZeR(Mr.El-DoRaDo)The Simpons DVDRip-AVC.by.AEZThe Simpsons S03 (1991-1992) DVDRip-AVC.by.AEZThe.Simpsons.S03.E01.Stark.Raving.Dad.mkv
Format : Matroska
Format version : Version 4 / Version 2
File size : 347 MiB
Duration : 23mn 4s
Overall bit rate : 2 103 Kbps
Movie name : Симпсоны / The Simpsons [1991 г.] | Рип AEZ
Encoded date : UTC 2015-08-25 19:34:07
Writing application : mkvmerge v8.3.0 ('Over the Horizon') 64bit
Writing library : libebml v1.3.1 + libmatroska v1.4.2
DURATION : 00:23:04.032000000
NUMBER_OF_FRAMES : 43251
NUMBER_OF_BYTES : 33216768
_STATISTICS_WRITING_APP : mkvmerge v8.3.0 ('Over the Horizon') 64bit
_STATISTICS_WRITING_DATE_UT : 2015-08-25 19:34:07
_STATISTICS_TAGS : BPS DURATION NUMBER_OF_FRAMES NUMBER_OF_BYTES
Video
ID : 1
Format : AVC
Format/Info : Advanced Video Codec
Format profile : High@L4.1
Format settings, CABAC : Yes
Format settings, ReFrames : 10 frames
Codec ID : V_MPEG4/ISO/AVC
Duration : 23mn 4s
Bit rate : 1 911 Kbps
Width : 720 pixels
Height : 544 pixels
Display aspect ratio : 4:3
Frame rate mode : Constant
Frame rate : 23.976 fps
Color space : YUV
Chroma subsampling : 4:2:0
Bit depth : 8 bits
Scan type : Progressive
Bits/(Pixel*Frame) : 0.203
Stream size : 308 MiB (89%)
Title : The Simpsons S03 E01: Stark Raving Dad
Writing library : x264 core 146 r2538 121396c
Encoding settings : cabac=1 / ref=10 / deblock=1:-2:-1 / analyse=0x3:0x133 / me=umh / subme=10 / psy=1 / psy_rd=1.00:0.00 / mixed_ref=1 / me_range=32 / chroma_me=1 / trellis=2 / 8x8dct=1 / cqm=0 / deadzone=21,11 / fast_pskip=1 / chroma_qp_offset=-2 / threads=9 / lookahead_threads=2 / sliced_threads=0 / nr=0 / decimate=1 / interlaced=0 / bluray_compat=0 / constrained_intra=0 / bframes=10 / b_pyramid=2 / b_adapt=2 / b_bias=0 / direct=1 / weightb=1 / open_gop=0 / weightp=2 / keyint=250 / keyint_min=25 / scenecut=40 / intra_refresh=0 / rc_lookahead=40 / rc=2pass / mbtree=0 / bitrate=1911 / ratetol=1.0 / qcomp=0.70 / qpmin=10 / qpmax=51 / qpstep=4 / cplxblur=20.0 / qblur=0.5 / vbv_maxrate=16500 / vbv_bufsize=16000 / nal_hrd=none / filler=0 / ip_ratio=1.40 / pb_ratio=1.30 / aq=1:1.00
Language : English
Default : Yes
Forced : No
Audio
ID : 2
Format : AC-3
Format/Info : Audio Coding 3
Mode extension : CM (complete main)
Format settings, Endianness : Big
Codec ID : A_AC3
Duration : 23mn 4s
Bit rate mode : Constant
Bit rate : 192 Kbps
Channel(s) : 2 channels
Channel positions : Front: L R
Sampling rate : 48.0 KHz
Compression mode : Lossy
Stream size : 31.7 MiB (9%)
Title : Многоголосый закадровый (Ren-TV)
Language : Russian
Default : Yes
Forced : No

Скриншоты

[Профиль] [ЛС]
Кто просматривает тему:

Форум Тема Автор Размер
Документальные HD BBC. Англия во времена Плантагенетов / The Plantagenets (Rosie Schellenberg / Рози Щеленберг, Jamie Simpson / Джими Симпсон, David Vincent /) [2014, Документальный, история, HDTVRip] TorrentFilm 4.29 GB
BBC BBC: Англия во времена Плантагенетов / The Plantagenets [серии 1-3 из 3] (Рози Щеленберг, Джими Симпсон, Дэвид Винсент) [2014 г., Документальный, история, HDTVRip 720p] skorpionN 4.29 GB
Фильмы 2010 года Паучья нора / Spiderhole (Дэниэл Симпсон / Daniel Simpson) [2010, Ирландия, ужасы, BDRip] DVO + Original Eng TorrentFilm 1.45 GB
Зарубежные мультсериалы Симпсоны / The Simpsons [S01-24] (1989-2012) HDRip Russian Mafia 133.84 GB
Зарубежные мультсериалы Симпсоны / The Simpsons [S25] (2013-2014) WEB-DLRip | 2х2, VO-production Russian Mafia 7.9 GB
Зарубежные мультсериалы Симпсоны / The Simpsons [S25] (2013-2014) WEB-DLRip | Nice-Media Russian Mafia 5.85 GB
Зарубежные мультсериалы Симпсоны / The Simpsons [S26] (2014) WEB-DL 720p | OMSKBIRD records Russian Mafia 16.7 GB
Зарубежные мультфильмы Симпсоны в кино / The Simpsons Movie (2007) BDRemux 1080p Russian Mafia 23.43 GB
Показать сообщения:    

Текущее время: Сегодня 08:18

Часовой пояс: GMT



Вы не можете начинать темы
Вы не можете отвечать на сообщения
Вы не можете редактировать свои сообщения
Вы не можете удалять свои сообщения
Вы не можете голосовать в опросах
Вы не можете прикреплять файлы к сообщениям
Вы не можете скачивать файлы