Сильные Духом (Юлия Ермолина) [2015, Документальный, HDTV 720p]

 
Автор Сообщение

TorrentFilm ®

Пол:

Стаж: 2 года

Сообщений: 7741



Награды: Нет

Торрент-статистика

Создавать темы 10-Фев-2015 00:00

[Цитировать]

Сильные Духом- Год выпуска: 2015
Страна: Россия
Канал: Первый Канала HD
Жанр: Документальный
Продолжительность: 0:46:25
Режиссер: Юлия Ермолина-Описание: 7 марта 2014 года в Сочи стартовали XI Паралимпийские зимние игры. Заявленная программа стала рекордной в истории по количеству медалей - 72 и видов спорта - 5. В рамках горнолыжной программы впервые был представлен пара-сноуборд. В паралимпиаде приняли участие 45 стран, 55 спортсменов. В состав нашей сборной вошли и 7 чемпионов паралимпийских игр. Наши спортсмены стали золотыми призерами. Как готовились к победе наши спортсмены? И как смогли оставить далеко позади соперников?-Автор рипа: lrn
Автор записи: riper.am
Сэмпл: Яндекс.Диск-Тип релиза: HDTV 720p
Контейнер: MKV
Видео: 1280x720 (16:9), 25,000 fps, H264, ~4000 kbps avg, ~0.174 bit/pixel
Аудио: 48 kHz, AC3 Dolby Digital, 2/0 (L,R) ch, ~192.00 kbps avg-

MediaInfo

General
Unique ID : 186196512564374513117526691081438727737 (0x8C1424D7355CD2D58278EB7E74D98E39)
Complete name : E:\uTorrent.Temp\Temp\Silnye.Duhom.2015.HDTV.720p.x264-lrn.mkv
Format : Matroska
Format version : Version 4 / Version 2
File size : 1.36 GiB
Duration : 46mn 25s
Overall bit rate : 4 195 Kbps
Movie name : 'Silnye.Duhom.HDTV.720p.x264' by lrn © 2015
Encoded date : UTC 2010-02-22 21:41:31
Writing application : mkvmerge v5.9.0 ('On The Loose') built on Dec 9 2012 15:37:01
Writing library : libebml v1.3.0 + libmatroska v1.4.0
DURATION : 00:46:25.240000000
NUMBER_OF_FRAMES : 69631
NUMBER_OF_BYTES : 1392880425
_STATISTICS_WRITING_APP : mkvmerge v7.0.0 ('Where We Going') 32bit built on Jun 9 2014 15:08:34
_STATISTICS_WRITING_DATE_UT : 2015-02-08 13:16:17
_STATISTICS_TAGS : BPS DURATION NUMBER_OF_FRAMES NUMBER_OF_BYTES
Video
ID : 1
Format : AVC
Format/Info : Advanced Video Codec
Format profile : High@L4.1
Format settings, CABAC : Yes
Format settings, ReFrames : 6 frames
Codec ID : V_MPEG4/ISO/AVC
Duration : 46mn 25s
Bit rate : 4 000 Kbps
Width : 1 280 pixels
Height : 720 pixels
Display aspect ratio : 16:9
Frame rate mode : Constant
Frame rate : 25.000 fps
Color space : YUV
Chroma subsampling : 4:2:0
Bit depth : 8 bits
Scan type : Progressive
Bits/(Pixel*Frame) : 0.174
Stream size : 1.27 GiB (93%)
Writing library : x264 core 142 r2431 ac76440
Encoding settings : cabac=1 / ref=6 / deblock=1:0:0 / analyse=0x3:0x133 / me=umh / subme=9 / psy=1 / psy_rd=1.00:0.00 / mixed_ref=1 / me_range=24 / chroma_me=1 / trellis=2 / 8x8dct=1 / cqm=0 / deadzone=21,11 / fast_pskip=1 / chroma_qp_offset=-2 / threads=12 / lookahead_threads=1 / sliced_threads=0 / nr=0 / decimate=1 / interlaced=0 / bluray_compat=0 / constrained_intra=0 / bframes=6 / b_pyramid=2 / b_adapt=2 / b_bias=0 / direct=3 / weightb=1 / open_gop=0 / weightp=2 / keyint=250 / keyint_min=25 / scenecut=40 / intra_refresh=0 / rc_lookahead=50 / rc=2pass / mbtree=1 / bitrate=4000 / ratetol=1.0 / qcomp=0.60 / qpmin=0 / qpmax=69 / qpstep=4 / cplxblur=20.0 / qblur=0.5 / ip_ratio=1.40 / aq=1:1.00
Default : Yes
Forced : No
Audio
ID : 2
Format : AC-3
Format/Info : Audio Coding 3
Mode extension : CM (complete main)
Format settings, Endianness : Big
Codec ID : A_AC3
Duration : 46mn 25s
Bit rate mode : Constant
Bit rate : 192 Kbps
Channel(s) : 2 channels
Channel positions : Front: L R
Sampling rate : 48.0 KHz
Bit depth : 16 bits
Compression mode : Lossy
Stream size : 63.7 MiB (5%)
Language : Russian
Default : Yes
Forced : No

-

Скриншоты

-
[Профиль] [ЛС]
Кто просматривает тему:

Форум Тема Автор Размер
Наши клипы Валерия - Сильные женщины [клип] (2015) HDTVRip 1080p от Kamikkadze | 60 fps sergej644 479 MB
Фильмы 2013 года Зомби-насильники: Похоть мертвецов 2 / Reipu zonbi: Lust of the dead 2 (2013) WEBRip | L1 достали все 1.36 GB
Фильмы (HD DVD, Blu-ray и BDRemux) Мужчина, которого слишком сильно любили / L'homme qu'on aimait trop (2014) BDRemux 1080р | Р Russian Mafia 29.05 GB
Фильмы 2016 года Насильно мил не будешь / Hard Sell (2016) HDRip | L2 Russian Mafia 1.36 GB
Фильмы 2014 года Под сильным ангелом / Под крепким ангелом / Песни пьющих / Pod mocnym aniolem (Войчех Смажовский / Wojciech Smarzowski) [2014, Польша, драма, DVDRip] Sub Rus + Sub Ukr + Original Pol bot 1.37 GB
Отечественные мультфильмы Про мышонка, который хотел стать сильным (Тадеуш Павленко) [1983, Рисованный мультфильм, DVDRip] TorrentFilm 163 MB
Фильмы (DVD 5/9) Сильная (Игорь Копылов) [2011, Россия, криминальная драма, DVD5 (Сжатый)] TorrentFilm 4.38 GB
Фильмы 2011 года Сильнейший удар 2 / Shootfighter II (1996) DVDRip-AVC | P Russian Mafia 2.05 GB
Показать сообщения:    

Текущее время: Сегодня 14:33

Часовой пояс: GMT



Вы не можете начинать темы
Вы не можете отвечать на сообщения
Вы не можете редактировать свои сообщения
Вы не можете удалять свои сообщения
Вы не можете голосовать в опросах
Вы не можете прикреплять файлы к сообщениям
Вы не можете скачивать файлы