Сила одиночки / A Force of One (1979) BDRip [720p]

 
Автор Сообщение

sergej644 ®

Пол:

Стаж: 4 года 11 месяцев

Сообщений: 6046

Откуда: Soviet Union



Награды: Нет

Торрент-статистика

Создавать темы 11-Авг-2014 18:51

[Цитировать]

-Сила одиночки / A Force of One (1979) BDRip
« He hears the silence. He see's the darkness. He's the only one who can stop the killing »
- Год выпуска: 1979
Производство: США | American Cinema Productions
Жанр: Боевик, Триллер, Криминал
Описание фильма:
В маленьком калифорнийском городке орудует банда тоговцев наркотиками. Помогать полицейским в уничтожении мафии начинает чемпион по каратэ Мэт Лонган. У него к бандитам особый счет: один из преступников убил приемного сына и ученика Логана. Теперь этот бандит — противник Мэта на ринге. А вне ринга — это опаснейший враг полицейских, использующий в борьбе запрещенные приемы.
Режиссер: Пол Аарон / Paul Aaron
Актеры: Чак Норрис / Chuck Norris, Дженнифер О’Нил / Jennifer O'Neill, Клу Гулагер / Clu Gulager, Рон О`Нил / Ron O'Neal, Билл Уоллес / Bill Wallace, Эрик Ланёвилль / Eric Laneuville, Джеймс Уитмор мл. / James Whitmore Jr, Клинт Ричи / Clint Ritchie, Пепе Серна / Pepe Serna, Рэй Витте / Ray Vitte, Аарон Норрис / Aaron Norris, Майк Норрис / Mike Norris
Продолжительность: 01:30:57
Качество видео: BDRip [720p]
Перевод: Профессиональный (многоголосый, закадровый) [НТВ]
Язык субтитров: Отсутствуют

Дата мировой премьеры: 15 ноября 1979
Видео кодек: MPEG-4 AVC/H.264
Видео: 1280x720 (16:9), 23,976 fps, ~7000 kbps avg, 0.317 bit/pixel
Аудио №1: 48 kHz, AC-3, 2 ch, (Front: L, R), ~192 kbps avg | Русский MVO
Аудио №2: 48 kHz, AC-3, 6 ch, Front: L C R, Side: L R, LFE ~448 kbps avg | Английский
Сэмпл: Скачать

MediaInfo

General
Unique ID                      : 198635854862829468363080702352915682953 (0x956FDFC46C4D94A5AE5C630D2A5FD689)
Complete name                  : I:\Фильмы\Sila.odinochki.1979.BDRip 720p.mkv
Format                         : Matroska
Format version                 : Version 2
File size                      : 4.85 GiB
Duration                       : 1h 30mn
Overall bit rate               : 7 635 Kbps
Encoded date                   : UTC 2014-06-28 06:08:03
Writing application            : mkvmerge v5.8.0 ('No Sleep / Pillow') built on Sep  2 2012 15:37:04
Writing library                : libebml v1.2.3 + libmatroska v1.3.0
Attachment                     : Yes
Video
ID                             : 1
Format                         : AVC
Format/Info                    : Advanced Video Codec
Format profile                 : [url=mailto:High@L4.1]High@L4.1[/url]
Format settings, CABAC         : Yes
Format settings, ReFrames      : 8 frames
Codec ID                       : V_MPEG4/ISO/AVC
Duration                       : 1h 30mn
Bit rate                       : 7 000 Kbps
Width                          : 1 280 pixels
Height                         : 720 pixels
Display aspect ratio           : 16:9
Frame rate mode                : Constant
Frame rate                     : 23.976 fps
Color space                    : YUV
Chroma subsampling             : 4:2:0
Bit depth                      : 8 bits
Scan type                      : Progressive
Bits/(Pixel*Frame)             : 0.317
Stream size                    : 4.35 GiB (90%)
Title                          : A.Force.of.One.1979.BDRip.720p
Writing library                : x264 core 125 r2208 d9d2288
Encoding settings              : cabac=1 / ref=8 / deblock=1:-3:-3 / analyse=0x3:0x113 / me=umh / subme=11 / psy=1 / psy_rd=1.10:0.25 / mixed_ref=1 / me_range=32 / chroma_me=1 / trellis=2 / 8x8dct=1 / cqm=0 / deadzone=21,11 / fast_pskip=0 / chroma_qp_offset=-4 / threads=6 / lookahead_threads=1 / sliced_threads=0 / nr=0 / decimate=0 / interlaced=0 / bluray_compat=0 / constrained_intra=0 / bframes=10 / b_pyramid=2 / b_adapt=2 / b_bias=0 / direct=3 / weightb=1 / open_gop=0 / weightp=2 / keyint=250 / keyint_min=23 / scenecut=40 / intra_refresh=0 / rc_lookahead=50 / rc=2pass / mbtree=0 / bitrate=7000 / ratetol=1.0 / qcomp=0.60 / qpmin=0 / qpmax=69 / qpstep=4 / cplxblur=20.0 / qblur=0.5 / vbv_maxrate=50000 / vbv_bufsize=62500 / nal_hrd=none / ip_ratio=1.40 / pb_ratio=1.30 / aq=2:0.80
Language                       : English
Default                        : Yes
Forced                         : No
Audio #1
ID                             : 2
Format                         : AC-3
Format/Info                    : Audio Coding 3
Mode extension                 : CM (complete main)
Format settings, Endianness    : Big
Codec ID                       : A_AC3
Duration                       : 1h 30mn
Bit rate mode                  : Constant
Bit rate                       : 192 Kbps
Channel(s)                     : 2 channels
Channel positions              : Front: L R
Sampling rate                  : 48.0 KHz
Bit depth                      : 16 bits
Compression mode               : Lossy
Stream size                    : 125 MiB (3%)
Title                          : HTB
Language                       : Russian
Default                        : Yes
Forced                         : No
Audio #2
ID                             : 3
Format                         : AC-3
Format/Info                    : Audio Coding 3
Mode extension                 : CM (complete main)
Format settings, Endianness    : Big
Codec ID                       : A_AC3
Duration                       : 1h 30mn
Bit rate mode                  : Constant
Bit rate                       : 448 Kbps
Channel(s)                     : 6 channels
Channel positions              : Front: L C R, Side: L R, LFE
Sampling rate                  : 48.0 KHz
Bit depth                      : 16 bits
Compression mode               : Lossy
Stream size                    : 291 MiB (6%)
Language                       : English
Default                        : No
Forced                         : No
Menu
00:00:00.000                   : en:Riding High
00:03:05.250                   : en:A Bust Gone Wrong
00:04:46.202                   : en:Weapon Unknown
00:09:04.500                   : en:A Force Of One
00:13:26.722                   : en:Teacher Needed
00:15:14.500                   : en:Off The Street
00:19:53.984                   : en:Emerging Hero
00:22:45.500                   : en:Deciding To Help
00:28:00.552                   : en:Death Trail
00:33:27.500                   : en:Training Begins
00:34:54.300                   : en:Philosophy of Discipline
00:40:08.000                   : en:Loss Of Friends
00:45:27.250                   : en:Investigation
00:47:31.181                   : en:On To Something
00:55:29.784                   : en:Don't Be a Hero
01:00:32.629                   : en:As Good As Dead
01:01:42.200                   : en:Never Got a Chance
01:04:29.750                   : en:Clue
01:06:59.500                   : en:Two Plus Two
01:10:22.259                   : en:Suspicion
01:14:45.250                   : en:Confirmation
01:18:03.428                   : en:Moving In
01:22:39.000                   : en:A Force Of Two
01:28:52.250                   : en:Credits
Скриншоты:


Время раздачи: 10:00 - 24:00
[Профиль] [ЛС]
Кто просматривает тему:

Показать сообщения:    

Текущее время: Сегодня 03:21

Часовой пояс: GMT



Вы не можете начинать темы
Вы не можете отвечать на сообщения
Вы не можете редактировать свои сообщения
Вы не можете удалять свои сообщения
Вы не можете голосовать в опросах
Вы не можете прикреплять файлы к сообщениям
Вы не можете скачивать файлы