Сила мысли / The power of thought (Вольфганг Шерц) [2013, Документальный, научно-популярный, HDTVRip 1080p]

 
Автор Сообщение

TorrentFilm ®

Пол:

Стаж: 2 года

Сообщений: 7741



Награды: Нет

Торрент-статистика

Создавать темы 21-Дек-2014 02:15

[Цитировать]

Сила мысли / The power of thought
Год выпуска: 2013
Страна: Австрия
Студия: FILMIX Filmproduktion
Жанр: Документальный, научно-популярный
Продолжительность: 00:51:58
Перевод: Профессиональный (многоголосый закадровый)
Режиссер: Вольфганг Шерц
Описание: Что такое мысль? Последние исследования подтвердили, что мы несем ответственность за свои мысли. Каждым нашим решением мы выбираем курс жизни и определяем свою судьбу. Рождаются ли мысли внутри нас? Или разум дарован нам извне?
Сэмпл: http://rusfolder.com/42214620
Тип релиза: HDTVRip 1080p
Контейнер: MKV
Видео: MPEG-4 AVC, 8000 Кбит/с, 1920x1080
Аудио: Русский (AC3, 6 ch, 448 Кбит/с)

MediaInfo

GeneralUnique ID : 206916566016321145833918415473446878014 (0x9BAAAE592A6D83C9A8BD85FF7909FB3E)Complete name : M:\Торренты\Документальные\Сила мысли_1080p.mkvFormat : MatroskaFormat version : Version 4 / Version 2File size : 3.07 GiBDuration : 51mn 58sOverall bit rate : 8 450 KbpsEncoded date : UTC 2014-11-08 13:29:15Writing application : mkvmerge v6.6.0 ('The Edge Of The In Between') built on Dec 1 2013 17:55:00Writing library : libebml v1.3.0 + libmatroska v1.4.1
VideoID : 1Format : AVCFormat/Info : Advanced Video CodecFormat profile : High@L4.1Format settings, CABAC : YesFormat settings, ReFrames : 4 framesCodec ID : V_MPEG4/ISO/AVCDuration : 51mn 58sBit rate : 8 000 KbpsWidth : 1 920 pixelsHeight : 1 080 pixelsDisplay aspect ratio : 16:9Frame rate mode : ConstantFrame rate : 25.000 fpsColor space : YUVChroma subsampling : 4:2:0Bit depth : 8 bitsScan type : ProgressiveBits/(Pixel*Frame) : 0.154Stream size : 2.84 GiB (93%)Writing library : x264 core 142 r2431 ac76440Encoding settings : cabac=1 / ref=4 / deblock=1:-1:-1 / analyse=0x3:0x133 / me=umh / subme=9 / psy=1 / psy_rd=1.00:0.10 / mixed_ref=1 / me_range=32 / chroma_me=1 / trellis=2 / 8x8dct=1 / cqm=0 / deadzone=21,11 / fast_pskip=1 / chroma_qp_offset=-3 / threads=6 / lookahead_threads=1 / sliced_threads=0 / nr=0 / decimate=0 / interlaced=0 / bluray_compat=0 / constrained_intra=0 / bframes=6 / b_pyramid=2 / b_adapt=2 / b_bias=0 / direct=3 / weightb=1 / open_gop=0 / weightp=2 / keyint=250 / keyint_min=23 / scenecut=40 / intra_refresh=0 / rc=2pass / mbtree=0 / bitrate=8000 / ratetol=1.0 / qcomp=0.60 / qpmin=0 / qpmax=69 / qpstep=4 / cplxblur=20.0 / qblur=0.5 / ip_ratio=1.40 / pb_ratio=1.30 / aq=1:1.00Language : EnglishDefault : YesForced : No
AudioID : 2Format : AC-3Format/Info : Audio Coding 3Mode extension : CM (complete main)Format settings, Endianness : BigCodec ID : A_AC3Duration : 51mn 58sBit rate mode : ConstantBit rate : 448 KbpsChannel(s) : 6 channelsChannel positions : Front: L C R, Side: L R, LFESampling rate : 48.0 KHzBit depth : 16 bitsCompression mode : LossyStream size : 167 MiB (5%)Language : RussianDefault : YesForced : Yes

-
Сообщения из этой темы [1 шт.] были выделены в отдельную тему Выделено из: Сила мысли / The power of thought (Вольфганг Шерц) [2013, Документальный, научно-популярный, HDTVRip 1080p] [4884662]
Aids
[Профиль] [ЛС]
Кто просматривает тему:

Показать сообщения:    

Текущее время: Сегодня 09:09

Часовой пояс: GMT



Вы не можете начинать темы
Вы не можете отвечать на сообщения
Вы не можете редактировать свои сообщения
Вы не можете удалять свои сообщения
Вы не можете голосовать в опросах
Вы не можете прикреплять файлы к сообщениям
Вы не можете скачивать файлы