Сила воли / Race (2016) BDRip-AVC | iTunes

 
Автор Сообщение

Russian Mafia ®

Пол:

Стаж: 1 год 8 месяцев

Сообщений: 4256



Награды: 10 (Подробнее)

Mega Seeder 5 (Количество: 1) Mega Seeder 4 (Количество: 1) За внесенный вклад в развитие сайта (Количество: 1)
Торрент-статистика

Создавать темы 23-Авг-2016 06:08

[Цитировать]

Информация о фильме
Название: Сила воли
Оригинальное название: Race
Год выпуска: 2016
Страна: Канада, Германия
Жанр: драма, биография, спорт-Перевод: Дубляж - [iTunes]
Субтитры: русские (Forced), русские (iTunes), английские (Full), английские (SDH)
Продолжительность: 02:14:27-Режиссер: Стивен Хопкинс
В ролях: Стэфан Джеймс (Jesse Owens), Джейсон Судейкис (Larry Snyder), Эли Гори (Dave Albritton), Шанис Бэнтон (Ruth Solomon), Кэрис ван Хаутен (Leni Riefenstahl), Джереми Айронс (Avery Brundage), Уильям Хёрт (Jeremiah Mahoney), Давид Кросс (Carl «Luz» Long), Джонатан Хиггинс (Dean Cromwell), Тони Кёрран (Lawson Robertson), Аманда Крю (Peggy), Барнаби Мечурат (Joseph Goebbels)-Описание:
История легендарного чернокожего атлета Джесси Оуэнса, чье невероятное упорство привело его на Олимпийские игры 1936 года в нацистском Берлине. Встретившиеся на его пути преграды и искушения - ничто в сравнении с грандиозным забегом, за которым следил весь мир. Затаив дыхание, одни надеялись на победу Джесси как на символ справедливости и достоинства, а другие жаждали его поражения во имя триумфа идеологии. Несколько секунд - и Джесси ворвался в историю, бросив дерзкий вызов самому Гитлеру.-Рейтинг:

MPAA: PG-13 - Детям до 13 лет просмотр не желателен-Качество: BDRip-AVC
Формат: MKV
Видео: AVC, 1024x436 (2.35:1), 1933 kbps, 23,976 fps, 0,181 bpp
Аудио №1: русский / AC3 / 5.1 / 48 kHz / 384 kbps / 16 bit
Аудио №2: английский / AC3 / 5.1 / 48 kHz / 448 kbps / 16 bit
Навигация по главам: есть-Релиз от: -

ОтчетМедиаИнфо

General
Unique ID : 200991215416173924240122161286894151937 (0x9735800227A0492F99A4DF2812E16901)
Complete name : D:downloadRACE.2016.BDRip-AVC by schultz R.G.Resident.mkv
Format : Matroska
Format version : Version 4 / Version 2
File size : 2.60 GiB
Duration : 2h 14mn
Overall bit rate : 2 766 Kbps
Encoded date : UTC 2016-08-23 04:01:29
Writing application : mkvmerge v8.9.0 ('Father Daughter') 64bit
Writing library : libebml v1.3.3 + libmatroska v1.4.4
DURATION : 02:14:27.264000000
NUMBER_OF_FRAMES : 252102
NUMBER_OF_BYTES : 451766784
_STATISTICS_WRITING_APP : mkvmerge v8.9.0 ('Father Daughter') 64bit
_STATISTICS_WRITING_DATE_UTC : 2016-08-23 04:01:29
_STATISTICS_TAGS : BPS DURATION NUMBER_OF_FRAMES NUMBER_OF_BYTES
Video
ID : 1
Format : AVC
Format/Info : Advanced Video Codec
Format profile : High@L4.1
Format settings, CABAC : Yes
Format settings, ReFrames : 11 frames
Codec ID : V_MPEG4/ISO/AVC
Duration : 2h 14mn
Bit rate : 1 933 Kbps
Width : 1 024 pixels
Height : 436 pixels
Display aspect ratio : 2.35:1
Frame rate : 23.976 fps
Color space : YUV
Chroma subsampling : 4:2:0
Bit depth : 8 bits
Scan type : Progressive
Bits/(Pixel*Frame) : 0.181
Stream size : 1.76 GiB (68%)
Writing library : x264 core 130 r2273 b3065e6
Encoding settings : cabac=1 / ref=11 / deblock=1:-3:-3 / analyse=0x3:0x113 / me=umh / subme=11 / psy=1 / psy_rd=1.00:0.00 / mixed_ref=1 / me_range=32 / chroma_me=1 / trellis=2 / 8x8dct=1 / cqm=0 / deadzone=21,11 / fast_pskip=0 / chroma_qp_offset=-2 / threads=12 / lookahead_threads=3 / sliced_threads=0 / nr=0 / decimate=0 / interlaced=0 / bluray_compat=0 / constrained_intra=0 / bframes=12 / b_pyramid=2 / b_adapt=2 / b_bias=0 / direct=3 / weightb=1 / open_gop=0 / weightp=2 / keyint=240 / keyint_min=23 / scenecut=40 / intra_refresh=0 / rc_lookahead=40 / rc=2pass / mbtree=1 / bitrate=1933 / ratetol=1.0 / qcomp=0.60 / qpmin=0 / qpmax=69 / qpstep=4 / cplxblur=20.0 / qblur=0.5 / ip_ratio=1.40 / aq=1:1.00
Language : English
Default : Yes
Forced : No
DURATION : 02:14:27.276000000
NUMBER_OF_FRAMES : 193421
NUMBER_OF_BYTES : 1947794299
_STATISTICS_WRITING_APP : mkvmerge v8.9.0 ('Father Daughter') 64bit
_STATISTICS_WRITING_DATE_UTC : 2016-08-23 04:01:29
_STATISTICS_TAGS : BPS DURATION NUMBER_OF_FRAMES NUMBER_OF_BYTES
Audio #1
ID : 2
Format : AC-3
Format/Info : Audio Coding 3
Mode extension : CM (complete main)
Codec ID : A_AC3
Duration : 2h 14mn
Bit rate mode : Constant
Bit rate : 384 Kbps
Channel(s) : 6 channels
Channel positions : Front: L C R, Side: L R, LFE
Sampling rate : 48.0 KHz
Bit depth : 16 bits
Compression mode : Lossy
Stream size : 369 MiB (14%)
Language : Russian
Default : Yes
Forced : No
Audio #2
ID : 3
Format : AC-3
Format/Info : Audio Coding 3
Mode extension : CM (complete main)
Codec ID : A_AC3
Duration : 2h 14mn
Bit rate mode : Constant
Bit rate : 448 Kbps
Channel(s) : 6 channels
Channel positions : Front: L C R, Side: L R, LFE
Sampling rate : 48.0 KHz
Bit depth : 16 bits
Compression mode : Lossy
Stream size : 431 MiB (16%)
Language : English
Default : No
Forced : No
Text #1
ID : 4
Format : UTF-8
Codec ID : S_TEXT/UTF8
Codec ID/Info : UTF-8 Plain Text
Title : Forced
Language : Russian
Default : Yes
Forced : No
Text #2
ID : 5
Format : UTF-8
Codec ID : S_TEXT/UTF8
Codec ID/Info : UTF-8 Plain Text
Title : iTunes
Language : Russian
Default : No
Forced : No
Text #3
ID : 6
Format : UTF-8
Codec ID : S_TEXT/UTF8
Codec ID/Info : UTF-8 Plain Text
Title : Full
Language : English
Default : No
Forced : No
Text #4
ID : 7
Format : UTF-8
Codec ID : S_TEXT/UTF8
Codec ID/Info : UTF-8 Plain Text
Title : SDH
Language : English
Default : No
Forced : No
Menu
00:00:00.000 : en:(01)00:00:00:000
00:05:30.747 : en:(02)00:05:30:747
00:13:49.452 : en:(03)00:13:49:452
00:21:24.657 : en:(04)00:21:24:657
00:31:46.153 : en:(05)00:31:46:153
00:38:00.568 : en:(06)00:38:00:568
00:44:47.559 : en:(07)00:44:47:559
00:51:13.778 : en:(08)00:51:13:778
00:56:31.887 : en:(09)00:56:31:887
01:03:45.737 : en:(10)01:03:45:737
01:09:46.265 : en:(11)01:09:46:265
01:15:48.542 : en:(12)01:15:48:542
01:19:37.396 : en:(13)01:19:37:396
01:27:43.716 : en:(14)01:27:43:716
01:33:55.462 : en:(15)01:33:55:462
01:39:49.858 : en:(16)01:39:49:858
01:47:22.310 : en:(17)01:47:22:310
01:52:07.136 : en:(18)01:52:07:136
01:57:30.835 : en:(19)01:57:30:835
02:05:34.109 : en:(20)02:05:34:109
02:14:27.016 : en:(21)02:14:27:016

Скриншоты

[Профиль] [ЛС]
Кто просматривает тему:

Показать сообщения:    

Текущее время: Сегодня 12:47

Часовой пояс: GMT



Вы не можете начинать темы
Вы не можете отвечать на сообщения
Вы не можете редактировать свои сообщения
Вы не можете удалять свои сообщения
Вы не можете голосовать в опросах
Вы не можете прикреплять файлы к сообщениям
Вы не можете скачивать файлы