Сила воли / Race (2016) BDRip 1080p | iTunes, A

 
Автор Сообщение

достали все ®

Пол:

Стаж: 1 год 8 месяцев

Сообщений: 6581



Награды: 12 (Подробнее)

Mega Seeder 4 (Количество: 1) Top Releaser 3 (Количество: 1) Mega Seeder 1 (Количество: 1)
Торрент-статистика

Создавать темы 19-Авг-2016 04:09

[Цитировать]

Информация о фильме
Название: Сила воли
Оригинальное название: Race
Год выхода: 2016
Жанр: Драма, биография, спорт
Режиссер: Стивен Хопкинс
В ролях: Стэфан Джеймс, Джейсон Судейкис, Эли Гори, Шанис Бэнтон, Кэрис ван Хаутен, Джереми Айронс, Уильям Хёрт, Давид Кросс, Джонатан Хиггинс, Тони Кёрран
О фильме: Правдивая история легендарного чернокожего атлета Джесси Оуэнса, чье невероятное упорство привело его на Олимпийские игры 1936 года в нацистском Берлине. Встретившиеся на его пути преграды и искушения - ничто в сравнении с грандиозным забегом, за которым следил весь мир. Затаив дыхание, одни надеялись на победу Джесси как на символ справедливости и достоинства, а другие жаждали его поражения во имя триумфа идеологии. Несколько секунд - и Джесси ворвался в историю, бросив дерзкий вызов самому Гитлеру.

Выпущено: Канада, Германия / Forecast Pictures, JoBro Productions & Film Finance, Trinity Race
Продолжительность: 02:14:27
Перевод: Дублированный [iTunes], Авторский (одноголосый, закадровый) [Д. Есарев]
Файл
Формат: MKV
Качество: BDRip 1080p
Видео: MPEG-4 AVC, 15000 kb/s, 1920x816
Аудио: Russian: AC3, 384 kb/s (6 ch) / English: DTS, 1510 kb/s (6 ch)
Субтитры: отсутствуют

MI

Общее
Уникальный идентификатор : 212876771156086158622513383359762694669 (0xA026932650C20AC08E87D4FA69F8820D)
Полное имя : D:загрузкиRace.2016.Esarev.BluRay.1080p (1).mkv
Формат : Matroska
Версия формата : Version 4 / Version 2
Размер файла : 16,2 Гбайт
Продолжительность : 2 ч. 14 м.
Общий поток : 17,2 Мбит/сек
Дата кодирования : UTC 2016-08-18 22:35:43
Программа кодирования : mkvmerge v8.3.0 ('Over the Horizon') 64bit
Библиотека кодирования : libebml v1.3.1 + libmatroska v1.4.2
Видео
Идентификатор : 1
Формат : AVC
Формат/Информация : Advanced Video Codec
Профиль формата : High@L4.1
Параметр CABAC формата : Да
Параметр ReFrames формата : 5 кадров
Идентификатор кодека : V_MPEG4/ISO/AVC
Продолжительность : 2 ч. 14 м.
Битрейт : 15,0 Мбит/сек
Ширина : 1920 пикселей
Высота : 816 пикселей
Соотношение сторон : 2,35:1
Режим частоты кадров : Постоянный
Частота кадров : 23,976 кадра/сек
Цветовое пространство : YUV
Субдискретизация насыщенности : 4:2:0
Битовая глубина : 8 бит
Тип развёртки : Прогрессивная
Бит/(Пиксели*Кадры) : 0.399
Размер потока : 13,7 Гбайт (85%)
Библиотека кодирования : x264 core 142 r2431+42 c69a006 tMod [8-bit@all X86]
Настройки программы : cabac=1 / ref=5 / deblock=1:0:0 / analyse=0x3:0x113 / me=umh / subme=10 / psy=1 / fade_compensate=0.00 / psy_rd=1.05:0.10 / mixed_ref=1 / me_range=48 / chroma_me=1 / trellis=2 / 8x8dct=1 / cqm=0 / deadzone=21,11 / fast_pskip=0 / chroma_qp_offset=-2 / threads=12 / lookahead_threads=1 / sliced_threads=0 / nr=0 / decimate=1 / interlaced=0 / bluray_compat=0 / constrained_intra=0 / fgo=0 / bframes=6 / b_pyramid=2 / b_adapt=2 / b_bias=0 / direct=3 / weightb=1 / open_gop=0 / weightp=2 / keyint=250 / keyint_min=23 / scenecut=40 / intra_refresh=0 / rc=2pass / mbtree=0 / bitrate=15000 / ratetol=2.0 / qcomp=0.70 / qpmin=0:0:0 / qpmax=69:69:69 / qpstep=4 / cplxblur=20.0 / qblur=0.5 / ip_ratio=1.40 / pb_ratio=1.30 / aq=2:1.00 / aq-sensitivity=10.00 / aq-factor=1.00:1.00:1.00 / aq2=0 / aq3=0
Default : Да
Forced : Нет
Аудио #1
Идентификатор : 2
Формат : AC-3
Формат/Информация : Audio Coding 3
Расширение режима : CM (complete main)
Параметр Endianness формата : Big
Идентификатор кодека : A_AC3
Продолжительность : 2 ч. 14 м.
Вид битрейта : Постоянный
Битрейт : 384 Кбит/сек
Каналы : 6 каналов
Расположение каналов : Front: L C R, Side: L R, LFE
Частота : 48,0 КГц
Битовая глубина : 16 бит
Метод сжатия : С потерями
Размер потока : 369 Мбайт (2%)
Заголовок : iTunes
Язык : Russian
Default : Да
Forced : Нет
Аудио #2
Идентификатор : 3
Формат : AC-3
Формат/Информация : Audio Coding 3
Расширение режима : CM (complete main)
Параметр Endianness формата : Big
Идентификатор кодека : A_AC3
Продолжительность : 2 ч. 14 м.
Вид битрейта : Постоянный
Битрейт : 384 Кбит/сек
Каналы : 6 каналов
Расположение каналов : Front: L C R, Side: L R, LFE
Частота : 48,0 КГц
Битовая глубина : 16 бит
Метод сжатия : С потерями
Размер потока : 369 Мбайт (2%)
Заголовок : Esarev
Язык : Russian
Default : Нет
Forced : Нет
Аудио #3
Идентификатор : 4
Формат : DTS
Формат/Информация : Digital Theater Systems
Режим : 16
Параметр Endianness формата : Big
Идентификатор кодека : A_DTS
Продолжительность : 2 ч. 14 м.
Вид битрейта : Постоянный
Битрейт : 1509 Кбит/сек
Каналы : 6 каналов
Расположение каналов : Front: L C R, Side: L R, LFE
Частота : 48,0 КГц
Битовая глубина : 24 бит
Метод сжатия : С потерями
Размер потока : 1,42 Гбайт (9%)
Язык : English
Default : Нет
Forced : Нет
Меню
00:00:00.000 : en:Chapter 01
00:08:37.004 : en:Chapter 02
00:15:45.802 : en:Chapter 03
00:27:34.122 : en:Chapter 04
00:34:52.521 : en:Chapter 05
00:43:45.123 : en:Chapter 06
00:53:25.201 : en:Chapter 07
01:04:19.729 : en:Chapter 08
01:14:25.025 : en:Chapter 09
01:22:48.324 : en:Chapter 10
01:30:52.405 : en:Chapter 11
01:42:25.211 : en:Chapter 12
01:54:42.406 : en:Chapter 13
02:04:51.320 : en:Chapter 14

Скриншоты

]



[Профиль] [ЛС]
Кто просматривает тему:

Показать сообщения:    

Текущее время: Сегодня 14:26

Часовой пояс: GMT



Вы не можете начинать темы
Вы не можете отвечать на сообщения
Вы не можете редактировать свои сообщения
Вы не можете удалять свои сообщения
Вы не можете голосовать в опросах
Вы не можете прикреплять файлы к сообщениям
Вы не можете скачивать файлы