Сидни Уайт / Sydney White (Джо Нуссбаум / Joe Nussbaum) [2007, США, мелодрама, комедия, WEB-DLRip] MVO (ТНТ) + DVO + Eng

 
Автор Сообщение

TorrentFilm ®

Пол:

Стаж: 2 года

Сообщений: 7741



Награды: Нет

Торрент-статистика

Создавать темы 04-Авг-2015 00:01

[Цитировать]

Сидни Уайт / Sydney White
Страна: США
Жанр: мелодрама, комедия
Год выпуска: 2007
Продолжительность: 01:47:54
Перевод 1: Профессиональный (многоголосый закадровый) ТНТ
Перевод 2: Профессиональный (двухголосый закадровый)
Cубтитры: нет
Оригинальная аудиодорожка: нет
Режиссер: Джо Нуссбаум / Joe Nussbaum
В ролях: Аманда Байнс , Сара Пэкстон, Мэтт Лонг, Джек Карпентер, Джереми Ховард, Кристал Хант, Дэнни Стронг, Сэмм Ливайн, Либби Минтц и другие
Описание: Дочь водопроводчика Сидни Уайт попадает в колледж, где правит бал Рэйчел — президент женского общества Каппа Пи. Девушки, состоящие в Каппа Пи, по сути являются её служащими, а не друзьями, а каждую претендентку Рэйчел оценивает по белизне волос, родственным корням и политическим убеждениям.
И к большому неудовольствию тирана, первокурснице Сидни Уайт глубоко наплевать на её авторитет — Сидни мало того, что брюнетка, так ещё бросает вызов её правилам и уводит потенциального парня Рэйчел, президента мужского братства...
Доп. информация: В начале второй дорожки (~7 минут) вместо одноголоски вставлен перевод с дорожки ТНТ. + ~ до 12 минуты дополнены пропуски в переводе.
Качество видео: WEB-DLRip
Формат видео: AVI
Видео: MPEG4, XviD, 720x304 (2.35:1), 23.976 fps, 1 151 Kbps (0.219 bit/pixel)
Аудио 1: AC-3, 48.0 KHz, 2 ch, 192 Kbps, CBR - ТНТ
Аудио 2: AC-3, 48.0 KHz, 2 ch, 192 Kbps, CBR - dvo
Аудио 3: AC-3, 48.0 KHz, 6 ch, 384 Kbps, CBR - английский

MediaInfo

Общее
Полное имя : K:\Сидни Уайт.avi
Формат : AVI
Формат/Информация : Audio Video Interleave
Размер файла : 1,46 Гбайт
Продолжительность : 1 ч. 47 м.
Общий поток : 1938 Кбит/сек
Название фильма : Сидни Уайт / Sydney White (2007)
Программа кодирования : VirtualDubMod 1.5.10.2 (build 2540/release)
Библиотека кодирования : VirtualDubMod build 2540/release
Авторское право : miha2154
Видео
Идентификатор : 0
Формат : MPEG-4 Visual
Профиль формата : Advanced Simple@L5
Параметр BVOP формата : 1
Параметр QPel формата : Нет
Параметр GMC формата : Без точки перехода
Параметр матрицы формата : Выборочная
Идентификатор кодека : XVID
Идентификатор кодека/Подсказка : XviD
Продолжительность : 1 ч. 47 м.
Битрейт : 1151 Кбит/сек
Ширина : 720 пикселей
Высота : 304 пикселя
Соотношение сторон : 2,35:1
Частота кадров : 23,976 кадра/сек
Цветовое пространство : YUV
Субдискретизация насыщенности : 4:2:0
Битовая глубина : 8 бит
Тип развёртки : Прогрессивная
Метод сжатия : С потерями
Бит/(Пиксели*Кадры) : 0.219
Размер потока : 888 Мбайт (59%)
Библиотека кодирования : XviD 65
Аудио #1
Идентификатор : 1
Формат : AC-3
Формат/Информация : Audio Coding 3
Расширение режима : CM (complete main)
Параметр Endianness формата : Big
Идентификатор кодека : 2000
Продолжительность : 1 ч. 47 м.
Вид битрейта : Постоянный
Битрейт : 192 Кбит/сек
Каналы : 2 канала
Расположение каналов : Front: L R
Частота : 48,0 КГц
Метод сжатия : С потерями
Размер потока : 148 Мбайт (10%)
Выравнивание : Разделение по промежуткам
Продолжительность промежутка : 42 мс. (1,00 видеокадр)
Время предзагрузки промежутка : 500 мс.
Заголовок : Профессиональный (многоголосый закадровый) ТНТ
Аудио #2
Идентификатор : 2
Формат : AC-3
Формат/Информация : Audio Coding 3
Расширение режима : CM (complete main)
Параметр Endianness формата : Big
Идентификатор кодека : 2000
Продолжительность : 1 ч. 47 м.
Вид битрейта : Постоянный
Битрейт : 192 Кбит/сек
Каналы : 2 канала
Расположение каналов : Front: L R
Частота : 48,0 КГц
Метод сжатия : С потерями
Размер потока : 148 Мбайт (10%)
Выравнивание : Разделение по промежуткам
Продолжительность промежутка : 42 мс. (1,00 видеокадр)
Время предзагрузки промежутка : 500 мс.
Заголовок : Профессиональный (двухголосый, закадровый)
Аудио #3
Идентификатор : 3
Формат : AC-3
Формат/Информация : Audio Coding 3
Расширение режима : CM (complete main)
Параметр Endianness формата : Big
Идентификатор кодека : 2000
Продолжительность : 1 ч. 47 м.
Вид битрейта : Постоянный
Битрейт : 384 Кбит/сек
Каналы : 6 каналов
Расположение каналов : Front: L C R, Side: L R, LFE
Частота : 48,0 КГц
Метод сжатия : С потерями
Размер потока : 296 Мбайт (20%)
Выравнивание : Разделение по промежуткам
Продолжительность промежутка : 42 мс. (1,00 видеокадр)
Время предзагрузки промежутка : 500 мс.
Заголовок : Английский

Скриншоты


Торрент перезалит 3.08.15 - заменен видеоряд, заменена дорожка ТНТ на стерео, с IPTV, добавлена английская дорожка
[Профиль] [ЛС]

Создавать темы 06-Авг-2015 22:23 (спустя 2 дня 22 часа)

Топик был перенесен из форума Фильмы до 2014 года в форум Фильмы до 2012 года
sergej644
 
Показать сообщения:    

Текущее время: Сегодня 08:00

Часовой пояс: GMT



Вы не можете начинать темы
Вы не можете отвечать на сообщения
Вы не можете редактировать свои сообщения
Вы не можете удалять свои сообщения
Вы не можете голосовать в опросах
Вы не можете прикреплять файлы к сообщениям
Вы не можете скачивать файлы