Сигнал / La senal (Рикардо Дарин / Ricardo Darin) [2007, Аргентина, Испания, драма, мелодрама, криминал, детектив, DVDRip] VO (PiterVV)

 
Автор Сообщение

TorrentFilm ®

Пол:

Стаж: 2 года

Сообщений: 7741



Награды: Нет

Торрент-статистика

Создавать темы 19-Янв-2016 00:08

[Цитировать]

Сигнал / La señal
Страна: Аргентина, Испания
Жанр: драма, мелодрама, криминал, детектив
Год выпуска: 2007
Продолжительность: 1:38:50
Перевод: Одноголосый закадровый PiterVV
Cубтитры: нет
Оригинальная аудиодорожка: нет
Режиссер: Рикардо Дарин / Ricardo Darín
В ролях: Рикардо Дарин, Диего Перетти, Хульета Диас, Андреа Пьетра, Вандо Вильямиль, Карлос Бардем, Лусиано Касерес, Джорджина Рей, Уолтер Санта Ана, Мартин Слипак
Описание: Аргентина. Пасмурное лето 1952. В стране кризис, режим Перона ослабевает, любимица нации Эвита смертельно больна. А мелкий частный детектив «Малыш» Корвалан либо выслеживает очередную неверную жену, либо без особого успеха играет на ипподроме. И уже не думает, что в его жизни может, что то измениться. Однако встреча с таинственной красавицей заставляет его поверить, что это и есть тот самый сигнал – знак судьбы – после которого все изменится, и ты окажешься способен на что то такое, на что раньше никогда бы и не осмелился. И Корвалан оказывается в самом центре мафиозных разборок и кровной мести.
Классический нуар в аргентинском антураже – единственный фильм в фильмографии Рикардо Дарина, в котором он выступил режиссером. Изначально «Сигнал» должен был снимать его друг сценарист Эдуардо Миньоне, но после его смерти Дарин взяв в помощники Мартина Ходара, сам поставил этот фильм.
Рип среднего качества, но другого нет и не предвидится. Впервые на русском.
Доп. информация: Другие переводы латиноамериканского кино PiterVV:
Закон Ирода: http://torrentfilm.net/forum/viewtopic.php?t=5096451
Прекрасный мир: http://torrentfilm.net/forum/viewtopic.php?t=5111621
Дно моря: http://torrentfilm.net/forum/viewtopic.php?t=5118211
Жребий брошен: http://torrentfilm.net/forum/viewtopic.php?t=5123358
Диссертации на убийство: http://torrentfilm.net/forum/viewtopic.php?t=5126760
Клоун: http://torrentfilm.net/forum/viewtopic.php?t=5130650
Сэмпл: http://multi-up.com/1083694
Качество видео: DVDRip
Формат видео: AVI
Видео: XVID, 720x400, 16:9, 25 fps, 778 Kbps
Аудио: MP3, 44.1 KHz, 256 Kbps, 2 channels, русский, PiterVV

MediaInfo

General
Complete name : D:\Большой день\сигнал\Сигнал.avi
Format : AVI
Format/Info : Audio Video Interleave
File size : 738 MiB
Duration : 1h 38mn
Overall bit rate : 1 044 Kbps
Writing application : VirtualDubMod 1.5.10.2 (build 2540/release)
Writing library : VirtualDubMod build 2540/release
Video
ID : 0
Format : MPEG-4 Visual
Format profile : Simple@L1
Format settings, BVOP : No
Format settings, QPel : No
Format settings, GMC : No warppoints
Format settings, Matrix : Default (H.263)
Codec ID : XVID
Codec ID/Hint : XviD
Duration : 1h 38mn
Bit rate : 778 Kbps
Width : 720 pixels
Height : 400 pixels
Display aspect ratio : 16:9
Frame rate : 25.000 fps
Color space : YUV
Chroma subsampling : 4:2:0
Bit depth : 8 bits
Scan type : Progressive
Compression mode : Lossy
Bits/(Pixel*Frame) : 0.108
Stream size : 550 MiB (75%)
Writing library : Lavc56.0.101
Audio
ID : 1
Format : MPEG Audio
Format version : Version 1
Format profile : Layer 3
Codec ID : 55
Codec ID/Hint : MP3
Duration : 1h 38mn
Bit rate mode : Constant
Bit rate : 256 Kbps
Channel(s) : 2 channels
Sampling rate : 44.1 KHz
Compression mode : Lossy
Stream size : 181 MiB (24%)
Alignment : Split accross interleaves
Interleave, duration : 40 ms (1.00 video frame)
Interleave, preload duration : 500 ms

Скриншот c названием фильма

Скриншоты

[Профиль] [ЛС]
Показать сообщения:    

Текущее время: Сегодня 00:21

Часовой пояс: GMT



Вы не можете начинать темы
Вы не можете отвечать на сообщения
Вы не можете редактировать свои сообщения
Вы не можете удалять свои сообщения
Вы не можете голосовать в опросах
Вы не можете прикреплять файлы к сообщениям
Вы не можете скачивать файлы