Сигнал / The Signal (Дэвид Брукнер / David Bruckner, Дэн Буш / Dan Bush, Джейкоб Гентри / Jacob Gentry) [2007 г., ужасы, фантастика, триллер, BDRip-AVC] 2xDVO (R5, Interfilm) + Original (English) + Subs (Rus, Eng)

 
Автор Сообщение

painkiller ®

Стаж: 2 года 3 месяца

Сообщений: 582



Награды: Нет

Торрент-статистика

Создавать темы 15-Авг-2014 10:16

[Цитировать]

Сигнал / The Signal«Никто не спасется...»- Страна: США
Жанр: ужасы, фантастика, триллер
Год выпуска: 2007
Продолжительность: 01:43:23-Перевод №1: Профессиональный (двухголосый, закадровый) - R5
Перевод №2: Любительский (двухголосый, закадровый) - Interfilm
Оригинальная аудиодорога: English
Cубтитры: Russian (full unit22), English (full) - (*.srt)
Навигация по главам: отсутствует-Режиссер: Дэвид Брукнер / David Bruckner, Дэн Буш / Dan Bush, Джейкоб Гентри / Jacob Gentry
В ролях: Энесса Ремси, Sahr Ngaujah, Ай Бауэн, Мэттью Стэнтон, Suehyla El-Attar, Джастин Велборн, Шери Кристиан, Scott Poythress, Кристофер Томас, Линдси Гаррет-Описание
Странный сигнал слышат одновременно все жители мегаполиса. Передается этот загадочный звук по телефону, радио и телевизору. Согласитесь, идеальный выбор «оружия» уничтожения. Ведь в каждом доме обязательно есть телевизор или радиоприемник, а уж мобильными телефонами пользуются даже дети.
Каждый, кто слышит этот писк, мгновенно сходит с ума и начинает… убивать. Люди превращаются в зомби, а в городе царит хаос, победить который никто не в силах. Кто же придумал такую безжалостную расправу над беспомощными горожанами?
-
Download sample-Качество видео: BDRip-AVC |
Формат видео: MKV-Видео: 1 116x472 (2.35:1), 23.976 fps, x264 ~4472 kbps avg, 0.335 bit/pixel
Аудио №1: 48 kHz, AC3, 3/2 (L,C,R,l,r) + LFE ch, ~448.00 kbps avg | Профессиональный (двухголосый, закадровый) - R5
Аудио №2: 48 kHz, AC3, 2 ch, ~192.00 kbps avg | Любительский (двухголосый, закадровый) - Interfilm
Аудио №3: 48 kHz, AC3, 3/2 (L,C,R,l,r) + LFE ch, ~448.00 kbps avg | English-

MediaInfo

General
Unique ID : 194642087716233607527714138527798241567 (0x926EB3D828B2424E950527A5B311A91F)
Complete name : D:\Фильмы\Рипы\The Signal 2007 BDRip-AVC Fredd Kruger.mkv
Format : Matroska
Format version : Version 4 / Version 2
File size : 4.02 GiB
Duration : 1h 43mn
Overall bit rate : 5 562 Kbps
Movie name : The Signal (2007) - Release for rutracker by Fredd Kruger
Encoded date : UTC 2014-04-08 17:48:27
Writing application : mkvmerge v6.1.0 ('Old Devil') built on Mar 4 2013 09:10:42
Writing library : libebml v1.3.0 + libmatroska v1.4.0
Attachment : Yes
Video
ID : 1
Format : AVC
Format/Info : Advanced Video Codec
Format profile : High@L4.1
Format settings, CABAC : Yes
Format settings, ReFrames : 15 frames
Codec ID : V_MPEG4/ISO/AVC
Duration : 1h 43mn
Bit rate : 4 364 Kbps
Width : 1 120 pixels
Height : 632 pixels
Display aspect ratio : 16:9
Frame rate mode : Constant
Frame rate : 23.976 fps
Color space : YUV
Chroma subsampling : 4:2:0
Bit depth : 8 bits
Scan type : Progressive
Bits/(Pixel*Frame) : 0.257
Stream size : 3.15 GiB (78%)
Title : Encode Fredd Kruger
Writing library : x264 core 142 r2409kMod d6b4e63
Encoding settings : cabac=1 / ref=15 / deblock=1:-2:-2 / analyse=0x3:0x133 / me=umh / subme=11 / psy=1 / fade_compensate=0.00 / psy_rd=1.05:0.05 / mixed_ref=1 / me_range=48 / chroma_me=1 / trellis=2 / 8x8dct=1 / cqm=0 / deadzone=21,11 / fast_pskip=1 / chroma_qp_offset=-3 / threads=12 / lookahead_threads=3 / sliced_threads=0 / nr=0 / decimate=1 / interlaced=0 / bluray_compat=0 / constrained_intra=0 / fgo=0 / bframes=16 / b_pyramid=2 / b_adapt=2 / b_bias=0 / direct=3 / weightb=1 / open_gop=0 / weightp=2 / keyint=250 / keyint_min=23 / scenecut=40 / intra_refresh=0 / rc_lookahead=60 / rc=crf / mbtree=0 / crf=20.0500 / qcomp=0.70 / qpmin=0 / qpmax=69 / qpstep=4 / vbv_maxrate=50000 / vbv_bufsize=62500 / crf_max=0.0 / nal_hrd=none / filler=0 / ip_ratio=1.30 / pb_ratio=1.20 / aq=3:0.80 / zones=140999,148728,q=30
Default : Yes
Forced : No
Audio #1
ID : 2
Format : AC-3
Format/Info : Audio Coding 3
Mode extension : CM (complete main)
Format settings, Endianness : Big
Codec ID : A_AC3
Duration : 1h 43mn
Bit rate mode : Constant
Bit rate : 448 Kbps
Channel count : 6 channels
Channel positions : Front: L C R, Side: L R, LFE
Sampling rate : 48.0 KHz
Bit depth : 16 bits
Compression mode : Lossy
Stream size : 331 MiB (8%)
Title : DVO (R5)
Language : Russian
Default : Yes
Forced : No
Audio #2
ID : 3
Format : AC-3
Format/Info : Audio Coding 3
Mode extension : CM (complete main)
Format settings, Endianness : Big
Codec ID : A_AC3
Duration : 1h 43mn
Bit rate mode : Constant
Bit rate : 192 Kbps
Channel count : 2 channels
Channel positions : Front: L R
Sampling rate : 48.0 KHz
Bit depth : 16 bits
Compression mode : Lossy
Stream size : 142 MiB (3%)
Title : DVO (Interfilm)
Language : Russian
Default : No
Forced : No
Audio #3
ID : 4
Format : AC-3
Format/Info : Audio Coding 3
Mode extension : CM (complete main)
Format settings, Endianness : Big
Codec ID : A_AC3
Duration : 1h 43mn
Bit rate mode : Constant
Bit rate : 448 Kbps
Channel count : 6 channels
Channel positions : Front: L C R, Side: L R, LFE
Sampling rate : 48.0 KHz
Bit depth : 16 bits
Compression mode : Lossy
Stream size : 331 MiB (8%)
Language : English
Default : No
Forced : No
Text #1
ID : 5
Format : UTF-8
Codec ID : S_TEXT/UTF8
Codec ID/Info : UTF-8 Plain Text
Title : full
Language : Russian
Default : No
Forced : No
Text #2
ID : 6
Format : UTF-8
Codec ID : S_TEXT/UTF8
Codec ID/Info : UTF-8 Plain Text
Title : full
Language : English
Default : No
Forced : No

x264 log

x264 [info]: frame I:919 Avg QP:17.44 size: 63020 PSNR Mean Y:47.19 U:52.54 V:52.45 Avg:48.11 Global:47.28
x264 [info]: frame P:30982 Avg QP:19.10 size: 33737 PSNR Mean Y:46.15 U:52.02 V:52.06 Avg:47.07 Global:46.13
x264 [info]: frame B:116828 Avg QP:20.05 size: 20236 PSNR Mean Y:45.22 U:52.00 V:51.97 Avg:46.23 Global:45.20
x264 [info]: consecutive B-frames: 2.9% 2.4% 7.4% 8.7% 8.1% 56.1% 7.0% 1.9% 1.1% 0.6% 0.8% 1.0% 0.3% 0.3% 0.2% 0.4% 0.8%
x264 [info]: mb I I16..4: 8.1% 81.5% 10.4%
x264 [info]: mb P I16..4: 1.6% 20.8% 1.4% P16..4: 28.2% 30.0% 7.3% 0.4% 0.0% skip:10.4%
x264 [info]: mb B I16..4: 0.3% 3.9% 0.1% B16..8: 38.2% 20.7% 3.1% direct:10.2% skip:23.5% L0:47.2% L1:45.7% BI: 7.1%
x264 [info]: 8x8 transform intra:88.4% inter:67.7%
x264 [info]: direct mvs spatial:99.8% temporal:0.2%
x264 [info]: coded y,uvDC,uvAC intra: 87.3% 88.0% 69.1% inter: 40.5% 47.1% 7.7%
x264 [info]: i16 v,h,dc,p: 30% 26% 4% 40%
x264 [info]: i8 v,h,dc,ddl,ddr,vr,hd,vl,hu: 9% 7% 8% 10% 14% 13% 14% 12% 14%
x264 [info]: i4 v,h,dc,ddl,ddr,vr,hd,vl,hu: 12% 11% 8% 8% 13% 13% 13% 10% 13%
x264 [info]: i8c dc,h,v,p: 46% 22% 16% 16%
x264 [info]: Weighted P-Frames: Y:3.8% UV:1.9%
x264 [info]: ref P L0: 38.5% 6.8% 17.9% 7.9% 6.2% 4.8% 4.1% 2.5% 2.2% 1.9% 1.7% 1.5% 1.4% 1.3% 1.2% 0.2%
x264 [info]: ref B L0: 62.3% 13.6% 7.3% 3.9% 3.0% 2.5% 2.0% 1.2% 1.1% 0.9% 0.8% 0.8% 0.5% 0.2%
x264 [info]: ref B L1: 89.8% 10.2%
x264 [info]: SSIM Mean Y:0.9788029 (16.737db)
x264 [info]: PSNR Mean Y:45.426 U:52.010 V:51.990 Avg:46.414 Global:45.387 kb/s:4471.67
x264 [total]: encoded 148729 frames, 7.37 fps, 4471.68 kb/s

Screenshots

--
[Профиль] [ЛС]

Создавать темы 06-Авг-2015 23:11 (спустя 11 месяцев 22 дня)

Топик был перенесен из форума Фильмы до 2014 года в форум Фильмы до 2012 года
sergej644
 
Показать сообщения:    

Текущее время: Сегодня 06:15

Часовой пояс: GMT



Вы не можете начинать темы
Вы не можете отвечать на сообщения
Вы не можете редактировать свои сообщения
Вы не можете удалять свои сообщения
Вы не можете голосовать в опросах
Вы не можете прикреплять файлы к сообщениям
Вы не можете скачивать файлы