Сибирь. Монамур (2011) BDRip 1080p | Лицензия

 
Автор Сообщение

sergej644 ®

Пол:

Стаж: 4 года 11 месяцев

Сообщений: 6045

Откуда: Soviet Union



Награды: Нет

Торрент-статистика

Создавать темы 05-Авг-2015 22:53

[Цитировать]

Информация о фильме
Название: Сибирь. Монамур
Год выхода: 2011
Жанр: Драма
Режиссер: Вячеслав Росс
В ролях: Петр Зайченко, Михаил Процько, Сергей Новиков, Л. Байрашевская, Николай Козак, Максим Емельянов, Соня Росс, Сергей Пускепалис, Юрий Гумиров, Марианна Шульц
О фильме:
Сибирь. В тайге, в брошенной деревне старик с внуком ждут отца мальчика, который вряд ли вернется. Муж с женой растят трех дочерей, и это единственное, что их еще связывает. Прошедший две кавказские войны капитан пытается найти свое место в мирной жизни. Судьбы этих героев переплетаются неожиданно и драматично. Им нужно снова и снова делать свой выбор, открывая в себе забытую человечность и сострадание. Милосердие выше справедливости.

Выпущено: Россия / Tundra Film
Продолжительность: 01:44:39
Перевод: Не требуется
Файл
Формат: MKV
Качество: BDRip 1080p
Видео: MPEG-4 AVC, 11000 Кбит/с, 1920x800
Звук: AC3, 6 ch, 640 Кбит/с
Семпл

MI

Общее
Уникальный идентификатор : 250107776622790390078461036026807974043 (0xBC2901711C8B91F7B1FBDE2B8CC3F89B)
Полное имя : F:Скачка торрентSybyr.Monamur.2011.x264.BDRip1080p.Killbrain.mkv
Формат : Matroska
Размер файла : 8,44 Гбайт
Продолжительность : 1 ч. 44 м.
Общий поток : 11,5 Мбит/сек
Дата кодирования : UTC 2012-01-02 21:56:30
Программа кодирования : mkvmerge v5.2.1 ('A Far Off Place') built on Jan 2 2012 20:38:08
Библиотека кодирования : libebml v1.2.3 + libmatroska v1.3.0
Видео
Идентификатор : 1
Формат : AVC
Формат/Информация : Advanced Video Codec
Профиль формата : High@L4.1
Параметр CABAC формата : Да
Параметр ReFrames формата : 4 кадра
Параметры GOP формата : M=4, N=18
Идентификатор кодека : V_MPEG4/ISO/AVC
Продолжительность : 1 ч. 44 м.
Битрейт : 11,0 Мбит/сек
Ширина : 1920 пикс.
Высота : 800 пикс.
Соотношение сторон : 2,40:1
Частота кадров : 24,000 кадр/сек
Цветовое пространство : YUV
Подвыборка цветности : 4:2:0
Битовая глубина : 8 бит
Тип развёртки : Прогрессивная
Бит/(Пиксели*Кадры) : 0.298
Размер потока : 7,80 Гбайт (92%)
Заголовок : Sybyr.Monamur (2011)
Библиотека кодирования : x264 core 120 r2120 0c7dab9
Настройки программы : cabac=1 / ref=4 / deblock=1:-2:-2 / analyse=0x3:0x113 / me=umh / subme=10 / psy=1 / psy_rd=1.00:0.00 / mixed_ref=1 / me_range=32 / chroma_me=1 / trellis=2 / 8x8dct=1 / cqm=0 / deadzone=21,11 / fast_pskip=0 / chroma_qp_offset=-2 / threads=2 / sliced_threads=0 / nr=0 / decimate=0 / interlaced=0 / bluray_compat=0 / constrained_intra=0 / bframes=8 / b_pyramid=2 / b_adapt=2 / b_bias=0 / direct=3 / weightb=1 / open_gop=0 / weightp=2 / keyint=240 / keyint_min=23 / scenecut=40 / intra_refresh=0 / rc_lookahead=40 / rc=2pass / mbtree=0 / bitrate=11000 / ratetol=1.5 / qcomp=0.60 / qpmin=0 / qpmax=69 / qpstep=4 / cplxblur=20.0 / qblur=0.5 / vbv_maxrate=40000 / vbv_bufsize=50000 / nal_hrd=none / ip_ratio=1.40 / pb_ratio=1.30 / aq=2:0.90
Язык : Russian
Коэффициенты матрицы : BT.709-5, BT.1361, IEC 61966-2-4 709, SMPTE RP177
Аудио
Идентификатор : 2
Формат : AC-3
Формат/Информация : Audio Coding 3
Расширение режима : CM (complete main)
Идентификатор кодека : A_AC3
Продолжительность : 1 ч. 44 м.
Вид битрейта : Постоянный
Битрейт : 640 Кбит/сек
Каналы : 6 каналов
Расположение каналов : Front: L C R, Side: L R, LFE
Частота : 48,0 КГц
Битовая глубина : 16 бит
Метод сжатия : С потерями
Размер потока : 479 Мбайт (6%)
Заголовок : AC3 / 640 kbps / 6 ch / RUS ORIGINAL BD
Язык : Russian
Меню
00:00:00.000 : en:00:00:00.000
00:09:54.489 : en:00:09:54.489
00:20:43.340 : en:00:20:43.340
00:29:21.072 : en:00:29:21.072
00:38:34.769 : en:00:38:34.769
00:49:13.879 : en:00:49:13.879
00:59:29.764 : en:00:59:29.764
01:09:12.681 : en:01:09:12.681
01:19:12.622 : en:01:19:12.622
01:30:37.438 : en:01:30:37.438
01:39:51.342 : en:01:39:51.342

Награды

Золотой орел, 2012 год
Номинации (2):
Лучшая работа художника-постановщика
Лучшие костюмы
Ника, 2012 год
Победитель (1):
Открытие года ( Михаил Процько )
Номинации (2):
Лучший фильм
Лучшая мужская роль (Петр Зайченко)

Скриншоты

Релиз от: от Killbrain
[Профиль] [ЛС]
Показать сообщения:    

Текущее время: Сегодня 11:52

Часовой пояс: GMT



Вы не можете начинать темы
Вы не можете отвечать на сообщения
Вы не можете редактировать свои сообщения
Вы не можете удалять свои сообщения
Вы не можете голосовать в опросах
Вы не можете прикреплять файлы к сообщениям
Вы не можете скачивать файлы