Сибирский траффик (2015) WEB-DLRip

 
Автор Сообщение

BOSS ®

Пол:

Стаж: 2 года 1 месяц

Сообщений: 3735

Откуда: ODESSA



Награды: 20 (Подробнее)

Top Keeper 1 (Количество: 1) Top Releaser 4 (Количество: 1) Top Seeder 5 (Количество: 1)
Торрент-статистика

Создавать темы 24-Авг-2016 04:49

[Цитировать]

Информация о фильме
Название: Сибирский траффик
Год выхода: 2015
Жанр: Боевик, криминал
Режиссер: Сергей Грозных
В ролях: Николай Устинов, Анна Захарова, Олег Захаров, Елена Бессмертная, Екатерина Спирина, Михаил Попов, Равиль Валиев, Евгений Писанков
О фильме:
Офицер в отставке Руслан Бероев выходит на пенсию, и казалось, что суровые будни закончены. Один за другим начинают пропадать сотрудники спецотдела и бывший сослуживец просит Руслана о помощи в раскрытии преступлений. Бероев не ожидал, что эта помощь обернётся для него войной, войной за себя, за свою семью и свою страну.

Страна: Россия
Студия: КиноОлимп, Сибирь
Продолжительность: 01:29:18
Перевод: Не требуется
Файл
Качество: WEB-DLRip
Кодек: XviD
Видео: 720x304 (2,35:1), 25 fps, XviD ~1989 Кbps avg, 0.363 bit/pixel
Аудио: AC3, 48 kHz, 2 ch, ~192.00 kbps avg | русский
Субтитры: Отсутствуют
Семпл

Инфо-файл

Общее
Полное имя : Sibirskij.traffik.2O15.O.WEBDLRip.avi
Формат : AVI
Формат/Информация : Audio Video Interleave
Размер файла : 1,37 Гбайт
Продолжительность : 1 ч. 29 м.
Общий поток : 2190 Кбит/сек
Программа кодирования : VirtualDubMod 1.5.10.3 | www.virtualdub-fr.org || (build 2550/release)
Библиотека кодирования : VirtualDubMod build 2550/release
Видео
Идентификатор : 0
Формат : MPEG-4 Visual
Профиль формата : Advanced Simple@L5
Параметр BVOP формата : 2
Параметр QPel формата : Нет
Параметр GMC формата : Без точки перехода
Параметр матрицы формата : Default (MPEG)
Идентификатор кодека : XVID
Идентификатор кодека/Подсказка : XviD
Продолжительность : 1 ч. 29 м.
Битрейт : 1989 Кбит/сек
Ширина : 720 пикселей
Высота : 304 пикселя
Соотношение сторон : 2,35:1
Частота кадров : 25,000 кадров/сек
Цветовое пространство : YUV
Субдискретизация насыщенности : 4:2:0
Битовая глубина : 8 бит
Тип развёртки : Прогрессивная
Метод сжатия : С потерями
Бит/(Пиксели*Кадры) : 0.363
Размер потока : 1,24 Гбайт (91%)
Библиотека кодирования : XviD 1.2.1 (UTC 2008-12-04)
Аудио
Идентификатор : 1
Формат : AC-3
Формат/Информация : Audio Coding 3
Расширение режима : CM (complete main)
Параметр Endianness формата : Big
Идентификатор кодека : 2000
Продолжительность : 1 ч. 29 м.
Вид битрейта : Постоянный
Битрейт : 192 Кбит/сек
Каналы : 2 канала
Расположение каналов : Front: L R
Частота : 48,0 КГц
Частота кадров : 31,250 кадров/сек (1536 spf)
Метод сжатия : С потерями
Размер потока : 123 Мбайт (9%)
Выравнивание : Разделение по промежуткам
Продолжительность промежутка : 40 мс. (1,00 видеокадр)
Время предзагрузки промежутка : 500 мс.

Скриншоты

[Профиль] [ЛС]
Показать сообщения:    

Текущее время: Сегодня 08:57

Часовой пояс: GMT



Вы не можете начинать темы
Вы не можете отвечать на сообщения
Вы не можете редактировать свои сообщения
Вы не можете удалять свои сообщения
Вы не можете голосовать в опросах
Вы не можете прикреплять файлы к сообщениям
Вы не можете скачивать файлы