Сеть / The Net (Ирвин Уинклер)[1995, Боевик, Триллер, Драма, BDRip] [1080p] [MVO] [AVO] + Sub [ENG,RUS]

 
Автор Сообщение

sergej644 ®

Пол:

Стаж: 4 года 11 месяцев

Сообщений: 6037

Откуда: Soviet Union



Награды: Нет

Торрент-статистика

Создавать темы 19-Окт-2014 12:44

[Цитировать]

-Сеть / The Net (1995) BDRip- Год выпуска: 1995
Производство: США / Columbia Pictures Corporation, Winkler Films
Жанр: Боевик, Триллер, Драма, Криминал, Детектив
Описание фильма:
Как и все мы, Анжела Беннет живет в век информации. Все аспекты ее существования переведены в цифры и занесены в различные компьютерные базы данных: личный идентификационный номер, номер банковского счета, номер страхового свидетельства, номер водительского удостоверения, сведения об отсутствии судимости. Работа Анжелы тоже связана с компьютерами — она программист.
Существование Анжелы Беннет полностью компьютеризованно. Она не придает этому значения, но однажды ее личность стирают! Гуляя по компьютерной сети, Анжела случайно перебегает дорогу преторианцам. Преторианцами называют себя члены организованной группы хакеров, на счету которых взломы правительственных систем безопасности, биржевые крахи, авиакатастрофы и убийства, совершенные с использованием только одного оружия — всемирной сети интернет. Анжела становится следующей жертвой в списке хакеров.
Они стирают ее личность и вписывают в биографию Анжелы новое имя и преступное прошлое. Согласно сфабрикованным данным, Анжела — опасная преступница, которая находится в розыске. Она должна найти в себе силы побороть злых компьютерных гениев.
Режиссер: Ирвин Уинклер
Актеры: Сандра Буллок, Джереми Нортэм, Дэннис Миллер, Дайан Бэйкер, Венди Джизел, Кен Ховард, Рэй МакКиннон, Дэниэл Шорр, Л. Скотт Колдуэлл, Роберт Госсетт
Продолжительность: 01:54:18
Качество видео: BDRip
Перевод: Дублированный, Многоголосый закадровый (х2), Авторский одноголосый закадровый (х2)
Язык субтитров: Русский, Английский
Вид субтитров: Вшитые отключаемые

Видеокодек: MPEG-4 AVC/H.264
Битрейт видео: ~15,9 Mbps
Размер кадра: 1920 x 1040
Аудио 1: Русский, AC3 5.1, 384 kbps, 48 kHz (Дубляж)
Аудио 2: Русский, DTS 5.1, 1509 kbps, 48 kHz (MVO, D2LAB)
Аудио 3: Русский, AC3 2.0, 192 kbps, 48 kHz (MVO)
Аудио 4: Русский, DTS 5.1, 1509 kbps, 48 kHz (AVO, Ю.Живов)
Аудио 5: Русский, DTS 5.1, 1509 kbps, 48 kHz (AVO, П.Карцев)
Аудио 6: Английский, DTS 5.1, 1509 kbps, 48 kHz-

Награды:

Премия канала «MTV», 1996 год
Номинации (1):
Самая желанная женщина (Сандра Буллок)

Рецензия:

Фильм «Сеть» интересен по своей сути. Несмотря на то, что с момента выхода прошло больше пятнадцати лет, фильм не теряет своей актуальности. Представьте, что бы произошло при аналогичных обстоятельствах сейчас, когда мир полностью зависит от компьютеров, зависит намного больше, чем в далеком 1995 году. «Сеть» наглядно демонстрирует нам, пусть и немного в утрированном виде, что может случиться с отдельно взятым человеком, если произойдет сбой в системе информации. И хорош фильм еще и тем, что можно увидеть, насколько человек одинок, даже если у него есть весь Интернет.
Сандра Баллок мне понравилась здесь, как понравилась только в «Доме у озера». Я поверила, что с ней действительно происходят все эти беды, что свалились как снег на голову. Здесь она умна и изящна, при этом она абсолютно органична в роли хакера экстра-класса. Не уступает ей и Главный Злодей Джереми Нотрэм. Он один из моих любимых актеров, но так случилось, что я познакомилась с ним по фильму «Эмма». С тех пор я не воспринимаю его иначе как мистера Найтли. Поэтому даже отъявленные негодяи в его исполнении мне очень импонируют. Его герой может вызвать жесткую неприязнь только малой толикой своих действий.
В целом фильм очень интересен, и не смотрите на то, что снят так давно. Пусть дискеты давно заменены на флешки, а мобильники давно стали раз в десять меньше. Суть одна и та же.

MediaInfo:

Общее
Уникальный идентификатор : 213703381809265860115692125514851426690 (0xA0C5C63390CA15F6AEF294C541202182)
Полное имя : D:\Films\The.Net.1995.BDRip.1080p.mkv
Формат : Matroska
Версия формата : Version 2
Размер файла : 17,9 Гбайт
Продолжительность : 1 ч. 54 м.
Общий поток : 22,5 Мбит/сек
Дата кодирования : UTC 2014-07-07 08:03:27
Программа кодирования : mkvmerge v5.2.0 ('I can't explain') built on Dec 18 2011 18:12:03
Библиотека кодирования : libebml v1.2.3 + libmatroska v1.3.0
Видео
Идентификатор : 1
Формат : AVC
Формат/Информация : Advanced Video Codec
Профиль формата : [url=mailto:High@L4.1]High@L4.1[/url]
Параметр CABAC формата : Да
Параметр ReFrames формата : 4 кадра
Идентификатор кодека : V_MPEG4/ISO/AVC
Продолжительность : 1 ч. 54 м.
Битрейт : 15,9 Мбит/сек
Ширина : 1920 пикселей
Высота : 1040 пикселей
Соотношение сторон : 1,85:1
Режим частоты кадров : Постоянный
Частота кадров : 23,976 кадра/сек
Цветовое пространство : YUV
Субдискретизация насыщенности : 4:2:0
Битовая глубина : 8 бит
Тип развёртки : Прогрессивная
Бит/(Пиксели*Кадры) : 0.331
Размер потока : 12,3 Гбайт (69%)
Библиотека кодирования : x264 core 138 r2358 9e941d1
Настройки программы : cabac=1 / ref=4 / deblock=1:-3:-3 / analyse=0x3:0x113 / me=umh / subme=11 / psy=1 / psy_rd=1.10:0.10 / mixed_ref=1 / me_range=32 / chroma_me=1 / trellis=2 / 8x8dct=1 / cqm=0 / deadzone=21,11 / fast_pskip=0 / chroma_qp_offset=-2 / threads=12 / lookahead_threads=1 / sliced_threads=0 / nr=0 / decimate=1 / interlaced=0 / bluray_compat=0 / constrained_intra=0 / bframes=6 / b_pyramid=2 / b_adapt=2 / b_bias=0 / direct=3 / weightb=1 / open_gop=0 / weightp=2 / keyint=250 / keyint_min=23 / scenecut=40 / intra_refresh=0 / rc=2pass / mbtree=0 / bitrate=15850 / ratetol=2.0 / qcomp=0.70 / qpmin=0 / qpmax=69 / qpstep=4 / cplxblur=20.0 / qblur=0.5 / ip_ratio=1.40 / pb_ratio=1.30 / aq=2:1.00
Язык : English
Default : Да
Forced : Нет
Аудио #1
Идентификатор : 2
Формат : AC-3
Формат/Информация : Audio Coding 3
Расширение режима : CM (complete main)
Параметр Endianness формата : Big
Идентификатор кодека : A_AC3
Продолжительность : 1 ч. 54 м.
Вид битрейта : Постоянный
Битрейт : 384 Кбит/сек
Каналы : 6 каналов
Расположение каналов : Front: L C R, Side: L R, LFE
Частота : 48,0 КГц
Битовая глубина : 16 бит
Метод сжатия : С потерями
Размер потока : 314 Мбайт (2%)
Заголовок : DUB
Язык : Russian
Default : Да
Forced : Нет
Аудио #2
Идентификатор : 3
Формат : DTS
Формат/Информация : Digital Theater Systems
Режим : 16
Параметр Endianness формата : Big
Идентификатор кодека : A_DTS
Продолжительность : 1 ч. 54 м.
Вид битрейта : Постоянный
Битрейт : 1509 Кбит/сек
Каналы : 6 каналов
Расположение каналов : Front: L C R, Side: L R, LFE
Частота : 48,0 КГц
Битовая глубина : 24 бит
Метод сжатия : С потерями
Размер потока : 1,20 Гбайт (7%)
Заголовок : MVO.D2LAB
Язык : Russian
Default : Нет
Forced : Нет
Аудио #3
Идентификатор : 4
Формат : AC-3
Формат/Информация : Audio Coding 3
Расширение режима : CM (complete main)
Параметр Endianness формата : Big
Идентификатор кодека : A_AC3
Продолжительность : 1 ч. 54 м.
Вид битрейта : Постоянный
Битрейт : 192 Кбит/сек
Каналы : 2 канала
Расположение каналов : Front: L R
Частота : 48,0 КГц
Битовая глубина : 16 бит
Метод сжатия : С потерями
Размер потока : 157 Мбайт (1%)
Заголовок : MVO
Язык : Russian
Default : Нет
Forced : Нет
Аудио #4
Идентификатор : 5
Формат : DTS
Формат/Информация : Digital Theater Systems
Режим : 16
Параметр Endianness формата : Big
Идентификатор кодека : A_DTS
Продолжительность : 1 ч. 54 м.
Вид битрейта : Постоянный
Битрейт : 1509 Кбит/сек
Каналы : 6 каналов
Расположение каналов : Front: L C R, Side: L R, LFE
Частота : 48,0 КГц
Битовая глубина : 24 бит
Метод сжатия : С потерями
Размер потока : 1,20 Гбайт (7%)
Заголовок : AVO Ю.Живов
Язык : Russian
Default : Нет
Forced : Нет
Аудио #5
Идентификатор : 6
Формат : DTS
Формат/Информация : Digital Theater Systems
Режим : 16
Параметр Endianness формата : Big
Идентификатор кодека : A_DTS
Продолжительность : 1 ч. 54 м.
Вид битрейта : Постоянный
Битрейт : 1509 Кбит/сек
Каналы : 6 каналов
Расположение каналов : Front: L C R, Side: L R, LFE
Частота : 48,0 КГц
Битовая глубина : 24 бит
Метод сжатия : С потерями
Размер потока : 1,20 Гбайт (7%)
Заголовок : AVO П.Карцев
Язык : Russian
Default : Нет
Forced : Нет
Аудио #6
Идентификатор : 7
Формат : DTS
Формат/Информация : Digital Theater Systems
Режим : 16
Параметр Endianness формата : Big
Идентификатор кодека : A_DTS
Продолжительность : 1 ч. 54 м.
Вид битрейта : Постоянный
Битрейт : 1509 Кбит/сек
Каналы : 6 каналов
Расположение каналов : Front: L C R, Side: L R, LFE
Частота : 48,0 КГц
Битовая глубина : 24 бит
Метод сжатия : С потерями
Размер потока : 1,20 Гбайт (7%)
Язык : English
Default : Нет
Forced : Нет
Текст #1
Идентификатор : 8
Формат : UTF-8
Идентификатор кодека : S_TEXT/UTF8
Идентификатор кодека/Информация : UTF-8 Plain Text
Язык : Russian
Default : Нет
Forced : Нет
Текст #2
Идентификатор : 9
Формат : UTF-8
Идентификатор кодека : S_TEXT/UTF8
Идентификатор кодека/Информация : UTF-8 Plain Text
Язык : English
Default : Нет
Forced : Нет
Меню
00:00:00.000 : en:00:00:00.000
00:10:18.201 : en:00:10:18.201
00:18:36.824 : en:00:18:36.824
00:27:31.692 : en:00:27:31.692
00:36:35.693 : en:00:36:35.693
00:40:55.912 : en:00:40:55.912
00:49:35.431 : en:00:49:35.431
00:57:19.645 : en:00:57:19.645
01:06:30.695 : en:01:06:30.695
01:13:07.216 : en:01:13:07.216
01:19:37.815 : en:01:19:37.815
01:25:10.731 : en:01:25:10.731
01:30:20.040 : en:01:30:20.040
01:35:51.204 : en:01:35:51.204
01:39:37.388 : en:01:39:37.388
01:45:06.300 : en:01:45:06.300
-Скриншоты:
-Время раздачи: С 8:00 до 22:00 до 5 скачавших
[Профиль] [ЛС]
Показать сообщения:    

Текущее время: Сегодня 15:59

Часовой пояс: GMT



Вы не можете начинать темы
Вы не можете отвечать на сообщения
Вы не можете редактировать свои сообщения
Вы не можете удалять свои сообщения
Вы не можете голосовать в опросах
Вы не можете прикреплять файлы к сообщениям
Вы не можете скачивать файлы