Сестрицы / Õed (Эльберт Туганов / Elbert Tuganov) [1974, кукольная анимация, TVRip]

 
Автор Сообщение

TorrentFilm ®

Пол:

Стаж: 1 год 11 месяцев

Сообщений: 7741



Награды: Нет

Торрент-статистика

Создавать темы 02-Янв-2016 00:08

[Цитировать]

Сестрицы / Õed
Страна: СССР (Эстонская республика)
Жанр: кукольная анимация
Продолжительность: 00:07:43
Год выпуска: 1974
Перевод: Не требуется
Русские субтитры: нет
Режиссёр: Эльберт Туганов / Elbert Tuganov
В главной роли: Аннели Ахи / Anneli Ahi
Описание: Девочка играет в куклы. Кукол у неё две – это сёстры-близняшки. Перед глазами девочки как бы проходит вся их жизнь, и в каждом возрасте сестрицы находят повод для глупых капризов и ссор.
Качество: TVRip
Формат: AVI
Видео: 2392 kbps, 640х480 (4:3), 25.000 fps, MPEG-4 (XviD)
Аудио: 256 kbps, 48.0 kHz, 2 channels, MPEG Audio (MP3)
Субтитры: отсутствуют

Подробные технические данные

GeneralComplete name : Сестрицы (1974).aviFormat : AVIFormat/Info : Audio Video InterleaveFile size : 147 MiBDuration : 7mn 43sOverall bit rate : 2 662 KbpsWriting application : Lavf54.63.104
VideoID : 0Format : MPEG-4 VisualFormat profile : Simple@L0Format settings, BVOP : NoFormat settings, QPel : NoFormat settings, GMC : No warppointsFormat settings, Matrix : Default (H.263)Codec ID : XVIDCodec ID/Hint : XviDDuration : 7mn 43sBit rate : 2 392 KbpsWidth : 640 pixelsHeight : 480 pixelsDisplay aspect ratio : 4:3Frame rate : 25.000 fpsColor space : YUVChroma subsampling : 4:2:0Bit depth : 8 bitsScan type : ProgressiveCompression mode : LossyBits/(Pixel*Frame) : 0.312Stream size : 132 MiB (90%)Writing library : XviD 1.2.1 (UTC 2008-12-04)
AudioID : 1Format : MPEG AudioFormat version : Version 1Format profile : Layer 2Codec ID : 50Duration : 7mn 43sBit rate mode : ConstantBit rate : 256 KbpsChannel(s) : 2 channelsSampling rate : 48.0 KHzCompression mode : LossyDelay relative to video : 6s 144msStream size : 14.2 MiB (10%)Alignment : Aligned on interleavesInterleave, duration : 24 ms (0.60 video frame)

Скриншоты

[Профиль] [ЛС]
Показать сообщения:    

Текущее время: Сегодня 22:37

Часовой пояс: GMT



Вы не можете начинать темы
Вы не можете отвечать на сообщения
Вы не можете редактировать свои сообщения
Вы не можете удалять свои сообщения
Вы не можете голосовать в опросах
Вы не можете прикреплять файлы к сообщениям
Вы не можете скачивать файлы