Серебряный тренер (1963) SATRip

 
Author Message

BOSS ®

Gender:

Longevity: 4 years 10 months

Posts: 14162

Location: ODESSA



: 22 ()

Mega Seeder 3 (1) Mega Releaser 2 (1) За внесенный вклад в развитие сайта (1)
Торрент-статистика

Post 12-Aug-2019 17:32

[Quote]

Страна: СССР
Производство: Киностудия им. Довженко
Жанр: драма
Год выпуска: 1963
Продолжительность: 01:30:29
Перевод: Не требуется
Cубтитры: нет
Оригинальная аудиодорожка: русский
Режиссер: Виктор Ивченко
В ролях:
Михаил Кузнецов, Нинель Мышкова, Алефтина Евдокимова, Вячеслав Шалевич, Сергей Ляхницкий, Анатолий Соловьёв, Юнона Яковченко, Пётр Довгаль, Аркадий Гашинский, Г. Гаврикова...
Об актёрах подробней
Описание:
Еще в тридцатых годах Антон Лутенко вынужден был оставить Львов и искать преуспевания за границей. Во время войны погибла его жена, пропала без вести дочь Таня. За границей Антон нашел работу, о которой мечтал, стал известным тренером. Итальянка Джулия стала его импрессарио, другом и женой. Однажды Антону принесли советский журнал, на обложке которого была молодая гимнастка, мастер спорта Татьяна Лутенко. С командой итальянских гимнастов Антон летит в Киев. Впереди — волнующие дни счастливых переживаний и встреч…- -Исходник: DVB
Качество видео: SATRip
Формат видео: AVI
Видео: 704x528 (4:3), 25,000 кадров/сек, XviD ~ 1519 kbps avg, 0.163 bit/pixel
Аудио: 48 kHz, Dolby Digital AC3 2.0, 192 kbps

MediaInfo

Общее
Полное имя : Serebryanyy.trener.1963.SATRip_[New-team]_by_AVP_Studio.avi
Формат : AVI
Формат/Информация : Audio Video Interleave
Размер файла : 1,09 Гбайт
Продолжительность : 1 ч. 30 м.
Общий поток : 1721 Кбит/сек
Программа кодирования : VirtualDubMod 1.5.10.3 | www.virtualdub-fr.org || (build 2550/release)
Библиотека кодирования : VirtualDubMod build 2550/release
Видео
Идентификатор : 0
Формат : MPEG-4 Visual
Профиль формата : Advanced Simple@L5
Настройки формата : BVOP1 / Custom Matrix
Параметр BVOP формата : 1
Параметр QPel формата : Нет
Параметр GMC формата : Без точки перехода
Параметр матрицы формата : Выборочная
Идентификатор кодека : XVID
Идентификатор кодека/Подсказка : XviD
Продолжительность : 1 ч. 30 м.
Битрейт : 1519 Кбит/сек
Ширина : 704 пикселя
Высота : 528 пикселей
Соотношение сторон : 4:3
Частота кадров : 25,000 кадров/сек
Цветовое пространство : YUV
Субдискретизация насыщенности : 4:2:0
Битовая глубина : 8 бит
Тип развёртки : Прогрессивная
Метод сжатия : С потерями
Бит/(Пиксели*Кадры) : 0.163
Размер потока : 985 Мбайт (88%)
Библиотека кодирования : XviD 73
Аудио
Идентификатор : 1
Формат : AC-3
Формат/Информация : Audio Coding 3
Коммерческое название : Dolby Digital
Идентификатор кодека : 2000
Продолжительность : 1 ч. 30 м.
Вид битрейта : Постоянный
Битрейт : 192 Кбит/сек
Каналы : 2 канала
ChannelLayout : L R
Частота : 48,0 КГц
Частота кадров : 31,250 кадров/сек (1536 SPF)
Битовая глубина : 16 бит
Метод сжатия : С потерями
Размер потока : 125 Мбайт (11%)
Выравнивание : Разделение по промежуткам
Продолжительность промежутка : 40 мс. (1,00 видеокадр)
Время предзагрузки промежутка : 500 мс.

Скриншоты

[Profile] [PM]

Борисыч

Longevity: 1 month 15 days

Posts: 4



: None

Торрент-статистика

Post 13-Aug-2019 18:24 (after 1 day)

[Quote]

хороший фильм
[Profile] [PM]
Кто просматривает тему:

Forum Topic Author Size
PBS PBS: Тайны Мертвых. Загадка серебряного фараона / Secrets of the Dead. The Silver Pharaoh [сезон 10 эпизод 1 ] (Энди Вебб / Andy Webb) [2010 г., Документальный, научно-познавательный, и... skorpionN 1.31 GB
Наши клипы Serebro (Серебро) - Сборник клипов в 4K (UHD) (2016) WEB-DLRip 2160p BOSS 2.76 GB
Отечественные мультфильмы Ваня Датский (Николай Серебряков) [1974 г., мультфильм, DVB] TorrentFilm 1.03 GB
Отечественные мультфильмы Ваня Датский (Николай Серебряков) [1974, Кукольный мультфильм, DVDRip] TorrentFilm 258 MB
Фантастика и фэнтези Глен Кук – Приключения Гаррета 01. Сладкозвучный серебряный блюз (2015) MP3 Swager 437 MB
Фильмы (DVD 5/9) Измена (Кирилл Серебренников) [2012, Россия, триллер, драма, DVD5 (Сжатый)] исх. R5, + Sub Eng + Original Rus TorrentFilm 4.35 GB
Фильмы (DVD 5/9) Измена (Кирилл Серебренников) [2012, Россия, триллер, драма, DVD9] R5 Sub Eng + Original Rus TorrentFilm 7.49 GB
Фильмы (DVD 5/9) Изображая жертву (Кирилл Серебренников) [2006, Россия, комедия, DVD5 (Сжатый)] TorrentFilm 4.2 GB
Display posts from previous:    

The time now is: Today 15:43

All times are GMT



You cannot post new topics in this forum
You cannot reply to topics in this forum
You cannot edit your posts in this forum
You cannot delete your posts in this forum
You cannot vote in polls in this forum
You cannot attach files in this forum
You cannot download files in this forum