Серебряная стрела / Silver Streak (1976) BDRemux 1080p | Р, Р2, А

 
Автор Сообщение

Russian Mafia ®

Пол:

Стаж: 1 год 8 месяцев

Сообщений: 4256



Награды: 10 (Подробнее)

Mega Seeder 3 (Количество: 1) Mega Seeder 2 (Количество: 1) За внесенный вклад в развитие сайта (Количество: 1)
Торрент-статистика

Создавать темы 26-Сен-2016 14:06

[Цитировать]

Серебряная стрела / Silver Streak
Страна: США
Производство: 20th Century Fox Film Corporation, Frank Yablans Presentations, Miller-Milkis Productions
Год выпуска: 1976
Жанр: боевик, триллер, мелодрама, комедия, криминал
Продолжительность: 01:53:37
Режиссер: Артур Хиллер
Автор сценария: Колин Хиггинс
В ролях: Джин Уайлдер, Джилл Клейбёрг, Ричард Прайор, Патрик МакГуэн, Нед Битти, Клифтон Джеймс, Рей Уолстон, Стефан Гираш, Лен Бирман
Описание: Издатель Джордж Колдуэлл садится на трансамериканский экспресс «Серебряная стрела», следующий из Лос-Анжелеса в Чикаго. В течение длительной поездки он надеется отдохнуть от трудов праведных, но не тут-то было. Джордж знакомится с прелестной Хилли Бернс, которая оказывается каким-то образом причастна к убийству, происшедшему здесь же, в поезде…

Перевод: Профессиональный (многоголосый) + 2х Профессиональный (двухголосый) + Авторский (одноголосый)
Субтитры: английские-Качество: BDRemux 1080p
Формат: МКV
Видео кодек: AVC
Аудио кодек: АС3 | DTS
Видео: 1920x1080 (16:9), 23.976 fps, MPEG-4 AVC ~24.4 Мbps avg
Аудио №1: 48.0 kHz, AC3 Dolby Digital, 2/0 (L,R) ch, ~192 kbps | МVO / 1-й канал
Аудио №2: 48.0 kHz, AC3 Dolby Digital, 2/0 (L,R) ch, ~192 kbps | DVO / Ульпаней Эль-Ром
Аудио №3: 48.0 kHz, AC3 Dolby Digital, 2/0 (L,R) ch, ~192 kbps | DVO / НТВ
Аудио №4: 48.0 kHz, AC3 Dolby Digital, 2/0 (L,R) ch, ~192 kbps | АVO / Алексей Михалёв
Аудио №5: 48.0 kHz, Digital Theater Systems Master Audio, 3/2 (L,C,R,l,r) + LFE ch, ~3618 kbps / 24-bits | ENG
Формат субтитров: UTF-8 Plain Text
Дата премьеры (мир): 3 декабря 1976

BDRemux Info

Unique ID : 229756628724695225961583227761791946196 (0xACD98461DC53F360B37E68BC6CC54DD4)
Complete name : Silver Streak 1976 BDRemux 1080p.mkv
Format : Matroska
Format version : Version 4 / Version 2
File size : 21.6 GiB
Duration : 1h 53mn
Overall bit rate mode : Variable
Overall bit rate : 27.2 Mbps
Encoded date : UTC 2016-09-23 04:59:06
Writing application : mkvmerge v7.0.0 ('Where We Going') 64bit built on Jun 9 2014 15:16:27
Writing library : libebml v1.3.0 + libmatroska v1.4.1
DURATION : 01:53:36.843000000
NUMBER_OF_FRAMES : 639079
NUMBER_OF_BYTES : 3082292792
_STATISTICS_WRITING_APP : mkvmerge v7.0.0 ('Where We Going') 64bit built on Jun 9 2014 15:16:27
_STATISTICS_WRITING_DATE_UTC : 2016-09-23 04:59:06
_STATISTICS_TAGS : BPS DURATION NUMBER_OF_FRAMES NUMBER_OF_BYTES
Video
ID : 1
Format : AVC
Format/Info : Advanced Video Codec
Format profile : High@L4.1
Format settings, CABAC : Yes
Format settings, ReFrames : 2 frames
Format settings, GOP : M=1, N=10
Codec ID : V_MPEG4/ISO/AVC
Duration : 1h 53mn
Bit rate mode : Variable
Width : 1 920 pixels
Height : 1 080 pixels
Display aspect ratio : 16:9
Frame rate mode : Constant
Frame rate : 23.976 fps
Color space : YUV
Chroma subsampling : 4:2:0
Bit depth : 8 bits
Scan type : Progressive
Default : Yes
Forced : No
Audio #1
ID : 2
Format : AC-3
Format/Info : Audio Coding 3
Mode extension : CM (complete main)
Format settings, Endianness : Big
Codec ID : A_AC3
Duration : 1h 53mn
Bit rate mode : Constant
Bit rate : 192 Kbps
Channel(s) : 2 channels
Channel positions : Front: L R
Sampling rate : 48.0 KHz
Compression mode : Lossy
Stream size : 156 MiB (1%)
Title : 1-й канал
Language : Russian
Default : Yes
Forced : No
Audio #2
ID : 3
Format : AC-3
Format/Info : Audio Coding 3
Mode extension : CM (complete main)
Format settings, Endianness : Big
Codec ID : A_AC3
Duration : 1h 53mn
Bit rate mode : Constant
Bit rate : 192 Kbps
Channel(s) : 2 channels
Channel positions : Front: L R
Sampling rate : 48.0 KHz
Compression mode : Lossy
Stream size : 156 MiB (1%)
Title : Ульпаней Эль-Ром
Language : Russian
Default : No
Forced : No
Audio #3
ID : 4
Format : AC-3
Format/Info : Audio Coding 3
Mode extension : CM (complete main)
Format settings, Endianness : Big
Codec ID : A_AC3
Duration : 1h 53mn
Bit rate mode : Constant
Bit rate : 192 Kbps
Channel(s) : 2 channels
Channel positions : Front: L R
Sampling rate : 48.0 KHz
Compression mode : Lossy
Stream size : 156 MiB (1%)
Title : НТВ
Language : Russian
Default : No
Forced : No
Audio #4
ID : 5
Format : AC-3
Format/Info : Audio Coding 3
Mode extension : CM (complete main)
Format settings, Endianness : Big
Codec ID : A_AC3
Duration : 1h 53mn
Bit rate mode : Constant
Bit rate : 192 Kbps
Channel(s) : 2 channels
Channel positions : Front: L R
Sampling rate : 48.0 KHz
Compression mode : Lossy
Stream size : 156 MiB (1%)
Title : Михалев
Language : Russian
Default : No
Forced : No
Audio #5
ID : 6
Format : DTS
Format/Info : Digital Theater Systems
Format profile : MA / Core
Mode : 16
Format settings, Endianness : Big
Codec ID : A_DTS
Duration : 1h 53mn
Bit rate mode : Variable
Bit rate : Unknown / 1 509 Kbps
Channel(s) : 6 channels
Channel positions : Front: L C R, Side: L R, LFE
Sampling rate : 48.0 KHz
Bit depth : 24 bits
Compression mode : Lossless / Lossy
Language : English
Default : No
Forced : No
Text
ID : 7
Format : UTF-8
Codec ID : S_TEXT/UTF8
Codec ID/Info : UTF-8 Plain Text
Language : English
Default : No
Forced : No
Menu
00:00:00.000 : :Chapter 1
00:12:08.102 : :Chapter 2
00:21:59.901 : :Chapter 3
00:33:28.965 : :Chapter 4
00:42:16.492 : :Chapter 5
00:54:47.325 : :Chapter 6
01:02:57.607 : :Chapter 7
01:11:50.389 : :Chapter 8
01:19:38.607 : :Chapter 9
01:29:58.768 : :Chapter 10
01:42:46.451 : :Chapter 11
01:51:38.692 : :Chapter 12
01:53:36.559 : :Chapter 13

Скриншоты

[Профиль] [ЛС]
Кто просматривает тему:

Форум Тема Автор Размер
PBS PBS: Тайны Мертвых. Загадка серебряного фараона / Secrets of the Dead. The Silver Pharaoh [сезон 10 эпизод 1 ] (Энди Вебб / Andy Webb) [2010 г., Документальный, научно-познавательный, и... skorpionN 1.31 GB
Отечественные мультфильмы Ваня Датский (Николай Серебряков) [1974 г., мультфильм, DVB] TorrentFilm 1.03 GB
Отечественные мультфильмы Ваня Датский (Николай Серебряков) [1974, Кукольный мультфильм, DVDRip] TorrentFilm 258 MB
Фантастика и фэнтези Глен Кук – Приключения Гаррета 01. Сладкозвучный серебряный блюз (2015) MP3 Swager 437 MB
Фильмы (DVD 5/9) Измена (Кирилл Серебренников) [2012, Россия, триллер, драма, DVD5 (Сжатый)] исх. R5, + Sub Eng + Original Rus TorrentFilm 4.35 GB
Фильмы (DVD 5/9) Измена (Кирилл Серебренников) [2012, Россия, триллер, драма, DVD9] R5 Sub Eng + Original Rus TorrentFilm 7.49 GB
Фильмы (DVD 5/9) Изображая жертву (Кирилл Серебренников) [2006, Россия, комедия, DVD5 (Сжатый)] TorrentFilm 4.2 GB
Научная и техническая литература П. Тихонов - Справочная книжка для золотых и серебряных дел мастеров [1904, Справочный материал, PDF] Garik014 46 MB
Показать сообщения:    

Текущее время: Сегодня 08:12

Часовой пояс: GMT



Вы не можете начинать темы
Вы не можете отвечать на сообщения
Вы не можете редактировать свои сообщения
Вы не можете удалять свои сообщения
Вы не можете голосовать в опросах
Вы не можете прикреплять файлы к сообщениям
Вы не можете скачивать файлы