Серебряная стрела / Silver Streak (Дэвид Сандберг / David Sandberg) [1976, США, боевик, триллер, мелодрама, комедия, криминал, HDRip] AVO (Михалев)

 
Автор Сообщение

sergej644 ®

Пол:

Стаж: 4 года 11 месяцев

Сообщений: 6043

Откуда: Soviet Union



Награды: Нет

Торрент-статистика

Создавать темы 12-Июн-2015 06:59

[Цитировать]

Серебряная стрела / Silver Streak Страна: США
Жанр: боевик, триллер, мелодрама, комедия, криминал
Год выпуска: 1976
Продолжительность: 01:53:36
Перевод: Авторский (одноголосый закадровый) Алексей Михалев
Cубтитры: нет
Режиссер: Артур Хиллер / Arthur Hiller
В ролях: Джин Уайлдер, Джилл Клэйберг, Ричард Прайор, Пэтрик МакГуэн, Нед Битти, Клифтон Джеймс, Рэй Уолстон, Стефан Гираш, Лен Бирман, Валери Кёртин, Люсиль Бенсон, Скэтмэн Крозерс
Описание: Издатель Джордж Колдуэлл садится на трансамериканский экспресс «Серебряная стрела», следующий из Лос-Анжелеса в Чикаго. В течение длительной поездки он надеется отдохнуть от трудов праведных, но не тут-то было. Джордж знакомится с прелестной Хилли Бернс, которая оказывается каким-то образом причастна к убийству, происшедшему здесь же, в поезде…

Качество видео: HDRip
Формат видео: AVI
Видео кодек: XviD
Аудио кодек: AC3
Видео: 704x384 (1.83:1), 23.976 fps, XviD build 73 ~1642 kbps avg, 0.25 bit/pixel
Аудио: 48 kHz, AC3 Dolby Digital, 2/0 (L,R) ch, ~192 kbps

MediaInfo

Полное имя : Серебряная стрела.avi
Формат : AVI
Формат/Информация : Audio Video Interleave
Размер файла : 1,46 Гбайт
Продолжительность : 1 ч. 53 м.
Общий поток : 1844 Кбит/сек
Программа кодирования : VirtualDubMod 1.5.10.2 (build 2540/release)
Библиотека кодирования : VirtualDubMod build 2540/release
Видео
Идентификатор : 0
Формат : MPEG-4 Visual
Профиль формата : Advanced Simple@L5
Параметр BVOP формата : 1
Параметр QPel формата : Нет
Параметр GMC формата : Без точки перехода
Параметр матрицы формата : Выборочная
Идентификатор кодека : XVID
Идентификатор кодека/Подсказка : XviD
Продолжительность : 1 ч. 53 м.
Битрейт : 1643 Кбит/сек
Ширина : 704 пикселя
Высота : 384 пикселя
Соотношение сторон : 1,85:1
Частота кадров : 23,976 кадра/сек
Цветовое пространство : YUV
Субдискретизация насыщенности : 4:2:0
Битовая глубина : 8 бит
Тип развёртки : Прогрессивная
Метод сжатия : С потерями
Бит/(Пиксели*Кадры) : 0.253
Размер потока : 1,30 Гбайт (89%)
Библиотека кодирования : XviD 73
Аудио
Идентификатор : 1
Формат : AC-3
Формат/Информация : Audio Coding 3
Расширение режима : CM (complete main)
Параметр Endianness формата : Big
Идентификатор кодека : 2000
Продолжительность : 1 ч. 53 м.
Вид битрейта : Постоянный
Битрейт : 192 Кбит/сек
Каналы : 2 канала
Расположение каналов : Front: L R
Частота : 48,0 КГц
Битовая глубина : 16 бит
Метод сжатия : С потерями
Размер потока : 156 Мбайт (10%)
Выравнивание : Разделение по промежуткам
Продолжительность промежутка : 42 мс. (1,00 видеокадр)
Время предзагрузки промежутка : 500 мс.

Скриншоты

[Профиль] [ЛС]

Создавать темы 06-Авг-2015 22:33 (спустя 1 месяц 24 дня)

Топик был перенесен из форума Фильмы до 2014 года в форум Классика зарубежного кино
sergej644
 
Кто просматривает тему:

Форум Тема Автор Размер
PBS PBS: Тайны Мертвых. Загадка серебряного фараона / Secrets of the Dead. The Silver Pharaoh [сезон 10 эпизод 1 ] (Энди Вебб / Andy Webb) [2010 г., Документальный, научно-познавательный, и... skorpionN 1.31 GB
Отечественные мультфильмы Ваня Датский (Николай Серебряков) [1974 г., мультфильм, DVB] TorrentFilm 1.03 GB
Отечественные мультфильмы Ваня Датский (Николай Серебряков) [1974, Кукольный мультфильм, DVDRip] TorrentFilm 258 MB
Фантастика и фэнтези Глен Кук – Приключения Гаррета 01. Сладкозвучный серебряный блюз (2015) MP3 Swager 437 MB
Фильмы (DVD 5/9) Измена (Кирилл Серебренников) [2012, Россия, триллер, драма, DVD5 (Сжатый)] исх. R5, + Sub Eng + Original Rus TorrentFilm 4.35 GB
Фильмы (DVD 5/9) Измена (Кирилл Серебренников) [2012, Россия, триллер, драма, DVD9] R5 Sub Eng + Original Rus TorrentFilm 7.49 GB
Фильмы (DVD 5/9) Изображая жертву (Кирилл Серебренников) [2006, Россия, комедия, DVD5 (Сжатый)] TorrentFilm 4.2 GB
Научная и техническая литература П. Тихонов - Справочная книжка для золотых и серебряных дел мастеров [1904, Справочный материал, PDF] Garik014 46 MB
Показать сообщения:    

Текущее время: Сегодня 14:44

Часовой пояс: GMT



Вы не можете начинать темы
Вы не можете отвечать на сообщения
Вы не можете редактировать свои сообщения
Вы не можете удалять свои сообщения
Вы не можете голосовать в опросах
Вы не можете прикреплять файлы к сообщениям
Вы не можете скачивать файлы