Серебряная пуля / Silver Bullet (1985) WEB-DL 720p | P

 
Автор Сообщение

Russian Mafia ®

Пол:

Стаж: 1 год 8 месяцев

Сообщений: 4257



Награды: 10 (Подробнее)

Mega Seeder 2 (Количество: 1) За внесенный вклад в развитие сайта (Количество: 1) Top Releaser 5 (Количество: 1)
Торрент-статистика

Создавать темы 07-Окт-2015 05:01

[Цитировать]

Информация о фильме
Название: Серебряная пуля
Оригинальное название: Silver Bullet
Год выхода: 1985
Жанр: ужасы, триллер, драма, детектив, экранизация
Режиссер: Дэниэл Эттиэс
В ролях: Кори Хэйм — Мартин Кослоу, Эверетт Макгилл — Преподобный Лоу, Гэри Бьюзи — дядя Рэд, Робин Гроувз — Нэн Кослоу, Леон Рассом — Боб Кослоу, Терри О’Куинн — шериф Джо Холлер, Меган Фоллоуз — Джейн Кослоу.
О фильме:
Маленький американский городок охвачен страхом: по ночам, при полной луне кто-то зверски убивает его жителей. Кто-то покрытый шерстью, таинственный и неуловимый. Добровольцы, отправившиеся на поиски убийцы, сами становятся его жертвами. Лишь 13-летний Марти, прикованный к инвалидной коляске, убежден, что убийства совершает оборотень, против которого бессильно любое оружие, кроме серебряной пули.
Марти не только видел чудовище собственными глазами, но даже ранил в глаз. Но никто не верит рассказам парнишки, кроме его дяди Реда. А между тем оборотень уже готов вновь выйти на охоту…

Страна: США Нидерланды
Студия: Dino De Laurentiis Productions, Famous Films N.V., International Film Corporation (II), Paramount Pictures
Продолжительность: 01:34:50
Перевод: Профессиональный многоголосый
Файл
Качество: WEB-DL 720p
Видео: 1280x544 (2,35:1), 23.976 fps, MPEG-4 AVC, 3977 Kbps
Звук:
Аудио #1: AC3, 448 Kbps, 48.0 KHz, 6 ch (Rus) Профессиональный многоголосый
Субтитры: Английские

Скриншоты


MediaInfo

Формат : Matroska
Версия формата : Version 2
Размер файла : 2,99 Гбайт
Продолжительность : 1 ч. 34 м.
Общий поток : 4515 Кбит/сек
Дата кодирования : UTC 2015-10-03 23:11:19
Программа кодирования : mkvmerge v5.4.0 ('Piper') built on Mar 10 2012 13:34:39
Библиотека кодирования : libebml v1.2.3 + libmatroska v1.3.0
Видео
Идентификатор : 1
Формат : AVC
Формат/Информация : Advanced Video Codec
Профиль формата : Main@L3.1
Параметр CABAC формата : Нет
Параметр ReFrames формата : 2 кадра
Параметр GOP формата : N=1
Идентификатор кодека : V_MPEG4/ISO/AVC
Продолжительность : 1 ч. 34 м.
Битрейт : 3977 Кбит/сек
Ширина : 1280 пикселей
Высота : 544 пикселя
Соотношение сторон : 2,35:1
Режим частоты кадров : Постоянный
Частота кадров : 23,976 кадра/сек
Цветовое пространство : YUV
Субдискретизация насыщенности : 4:2:0
Битовая глубина : 8 бит
Тип развёртки : Прогрессивная
Бит/(Пиксели*Кадры) : 0.238
Размер потока : 2,63 Гбайт (88%)
Заголовок : Silver Bullet / Серебряная пуля (1985)
Язык : English
Default : Да
Forced : Нет
Основные цвета : BT.709
Характеристики трансфера : BT.709
Коэффициенты матрицы : BT.709
colour_range : Limited
Аудио
Идентификатор : 2
Формат : AC-3
Формат/Информация : Audio Coding 3
Расширение режима : CM (complete main)
Параметр Endianness формата : Big
Идентификатор кодека : A_AC3
Продолжительность : 1 ч. 34 м.
Вид битрейта : Постоянный
Битрейт : 448 Кбит/сек
Каналы : 6 каналов
Расположение каналов : Front: L C R, Side: L R, LFE
Частота : 48,0 КГц
Битовая глубина : 16 бит
Метод сжатия : С потерями
Задержка видео : 743 мс.
Размер потока : 304 Мбайт (10%)
Заголовок : MVO (Russian)
Язык : Russian
Default : Да
Forced : Нет
Текст
Идентификатор : 3
Формат : UTF-8
Идентификатор кодека : S_TEXT/UTF8
Идентификатор кодека/Информация : UTF-8 Plain Text
Заголовок : Eng
Язык : English
Default : Нет
Forced : Нет
Меню
00:00:00.000 : en:Tarker's Mills
00:05:13.000 : en:Sibling Rivalary
00:11:04.000 : en:A Brutal Killing
00:17:47.000 : en:Uncle Red
00:21:11.000 : en:Another Savage Murder
00:25:57.000 : en:Kite Flying Victim
00:31:17.000 : en:Private Justice
00:36:35.000 : en:Into The Woods
00:42:00.000 : en:No Comfort
00:44:52.000 : en:Fireworks Cancelled
00:48:05.000 : en:On The Open Road
00:53:51.000 : en:Marty Escapes
00:57:27.000 : en:Just One Eye
01:03:44.000 : en:Mysterious Letters
01:07:26.000 : en:Wheelchair Chase
01:13:50.000 : en:Cop Killer
01:19:48.000 : en:Molding A Bullet
01:25:13.000 : en:The Werewolf
[Профиль] [ЛС]
Кто просматривает тему:

Форум Тема Автор Размер
PBS PBS: Тайны Мертвых. Загадка серебряного фараона / Secrets of the Dead. The Silver Pharaoh [сезон 10 эпизод 1 ] (Энди Вебб / Andy Webb) [2010 г., Документальный, научно-познавательный, и... skorpionN 1.31 GB
Отечественные мультфильмы Ваня Датский (Николай Серебряков) [1974 г., мультфильм, DVB] TorrentFilm 1.03 GB
Отечественные мультфильмы Ваня Датский (Николай Серебряков) [1974, Кукольный мультфильм, DVDRip] TorrentFilm 258 MB
Фантастика и фэнтези Глен Кук – Приключения Гаррета 01. Сладкозвучный серебряный блюз (2015) MP3 Swager 437 MB
Фильмы (DVD 5/9) Измена (Кирилл Серебренников) [2012, Россия, триллер, драма, DVD5 (Сжатый)] исх. R5, + Sub Eng + Original Rus TorrentFilm 4.35 GB
Фильмы (DVD 5/9) Измена (Кирилл Серебренников) [2012, Россия, триллер, драма, DVD9] R5 Sub Eng + Original Rus TorrentFilm 7.49 GB
Фильмы (DVD 5/9) Изображая жертву (Кирилл Серебренников) [2006, Россия, комедия, DVD5 (Сжатый)] TorrentFilm 4.2 GB
Научная и техническая литература П. Тихонов - Справочная книжка для золотых и серебряных дел мастеров [1904, Справочный материал, PDF] Garik014 46 MB
Показать сообщения:    

Текущее время: Сегодня 14:58

Часовой пояс: GMT



Вы не можете начинать темы
Вы не можете отвечать на сообщения
Вы не можете редактировать свои сообщения
Вы не можете удалять свои сообщения
Вы не можете голосовать в опросах
Вы не можете прикреплять файлы к сообщениям
Вы не можете скачивать файлы