Серебряная пуля / Silver Bullet (1985) DVDRip

 
Автор Сообщение

Russian Mafia ®

Пол:

Стаж: 1 год 8 месяцев

Сообщений: 4260



Награды: 10 (Подробнее)

Mega Seeder 1 (Количество: 1) Top Releaser 2 (Количество: 1) За внесенный вклад в развитие сайта (Количество: 1)
Торрент-статистика

Создавать темы 07-Окт-2015 05:00

[Цитировать]

Страна: США
Производство:Dino De Laurentiis Productions, Famous Films N.V.
Жанр: Ужасы, триллер, драма, детектив
Год выпуска: 1985
Продолжительность: 01:30:44
Перевод: Профессиональный многоголосый (ОРТ, РТР), профессиональный двухголосый, авторский (Гаврилов)
Оригинальная аудиодорожка: Английская
Режиссер: Дэниэл Эттиэс
В ролях: Гэри Бьюзи, Эверет МакГилл, Кори Хэйм, Меган Фоллоуз, Робин Гров, Леон Рассом, Терри О`Куинн, Билл Смитрович, Джо Райт, Кент Бродхерст
Описание:Маленький американский городок охвачен страхом: по ночам, при полной луне кто-то зверски убивает его жителей. Кто-то покрытый шерстью, таинственный и неуловимый. Добровольцы, отправившиеся на поиски убийцы, сами становятся его жертвами. Лишь 13-летний Марти, прикованный к инвалидной коляске, убежден, что убийства совершает оборотень, против которого бессильно любое оружие, кроме серебряной пули. Марти не только видел чудовище собственными глазами, но даже ранил в глаз. Но никто не верит рассказам парнишки, кроме его дяди Реда. А между тем оборотень уже готов вновь выйти на охоту…

Исходник: DVD5 R1
Тип релиза: DVDRip
Контейнер: AVI
Видео: 704x304 (2.32:1), 25 fps, XviD MPEG-4 ~1328 kbps avg, 0.25 bit/pixel
Аудио 1: 48 kHz, AC3 Dolby Digital, 2/0 (L,R) ch, ~192 kbps (русский)
Аудио 2: 48 kHz, AC3 Dolby Digital, 2/0 (L,R) ch, ~192 kbps (русский)
Аудио 3: 48 kHz, AC3 Dolby Digital, 2/0 (L,R) ch, ~192 kbps (русский)
Аудио 4: 48 kHz, AC3 Dolby Digital, 2/0 (L,R) ch, ~192 kbps (русский)
Аудио 5: 48 kHz, AC3 Dolby Digital, 2/0 (L,R) ch, ~192 kbps (английский)

MediaInfo

Общее
Полное имя : D:ААА2Серебрянная пуля.avi
Формат : AVI
Формат/Информация : Audio Video Interleave
Размер файла : 1,47 Гбайт
Продолжительность : 1 ч. 30 м.
Общий поток : 2321 Кбит/сек
Программа кодирования : VirtualDubMod 1.5.10.2 (build 2540/release)
Библиотека кодирования : VirtualDubMod build 2540/release
Видео
Идентификатор : 0
Формат : MPEG-4 Visual
Профиль формата : Advanced Simple@L5
Параметр BVOP формата : 2
Параметр QPel формата : Нет
Параметр GMC формата : Без точки перехода
Параметр матрицы формата : Default (MPEG)
Режим смешивания : Сжатый битовый поток
Идентификатор кодека : XVID
Идентификатор кодека/Подсказка : XviD
Продолжительность : 1 ч. 30 м.
Битрейт : 1332 Кбит/сек
Ширина : 704 пикселя
Высота : 304 пикселя
Соотношение сторон : 2,35:1
Частота кадров : 25,000 кадров/сек
Цветовое пространство : YUV
Субдискретизация насыщенности : 4:2:0
Битовая глубина : 8 бит
Тип развёртки : Прогрессивная
Метод сжатия : С потерями
Бит/(Пиксели*Кадры) : 0.249
Размер потока : 864 Мбайт (57%)
Библиотека кодирования : XviD 1.2.1 (UTC 2008-12-04)
Аудио #1
Идентификатор : 1
Формат : AC-3
Формат/Информация : Audio Coding 3
Расширение режима : CM (complete main)
Параметр Endianness формата : Big
Идентификатор кодека : 2000
Продолжительность : 1 ч. 30 м.
Вид битрейта : Постоянный
Битрейт : 192 Кбит/сек
Каналы : 2 канала
Расположение каналов : Front: L R
Частота : 48,0 КГц
Битовая глубина : 16 бит
Метод сжатия : С потерями
Размер потока : 125 Мбайт (8%)
Выравнивание : Разделение по промежуткам
Продолжительность промежутка : 40 мс. (1,00 видеокадр)
Время предзагрузки промежутка : 500 мс.
Аудио #2
Идентификатор : 2
Формат : AC-3
Формат/Информация : Audio Coding 3
Расширение режима : CM (complete main)
Параметр Endianness формата : Big
Идентификатор кодека : 2000
Продолжительность : 1 ч. 30 м.
Вид битрейта : Постоянный
Битрейт : 192 Кбит/сек
Каналы : 2 канала
Расположение каналов : Front: L R
Частота : 48,0 КГц
Битовая глубина : 16 бит
Метод сжатия : С потерями
Размер потока : 125 Мбайт (8%)
Выравнивание : Разделение по промежуткам
Продолжительность промежутка : 40 мс. (1,00 видеокадр)
Время предзагрузки промежутка : 500 мс.
Аудио #3
Идентификатор : 3
Формат : AC-3
Формат/Информация : Audio Coding 3
Расширение режима : CM (complete main)
Параметр Endianness формата : Big
Идентификатор кодека : 2000
Продолжительность : 1 ч. 30 м.
Вид битрейта : Постоянный
Битрейт : 192 Кбит/сек
Каналы : 2 канала
Расположение каналов : Front: L R
Частота : 48,0 КГц
Битовая глубина : 16 бит
Метод сжатия : С потерями
Размер потока : 125 Мбайт (8%)
Выравнивание : Разделение по промежуткам
Продолжительность промежутка : 40 мс. (1,00 видеокадр)
Время предзагрузки промежутка : 500 мс.
Аудио #4
Идентификатор : 4
Формат : AC-3
Формат/Информация : Audio Coding 3
Расширение режима : CM (complete main)
Параметр Endianness формата : Big
Идентификатор кодека : 2000
Продолжительность : 1 ч. 30 м.
Вид битрейта : Постоянный
Битрейт : 192 Кбит/сек
Каналы : 2 канала
Расположение каналов : Front: L R
Частота : 48,0 КГц
Битовая глубина : 16 бит
Метод сжатия : С потерями
Размер потока : 125 Мбайт (8%)
Выравнивание : Разделение по промежуткам
Продолжительность промежутка : 40 мс. (1,00 видеокадр)
Время предзагрузки промежутка : 500 мс.
Аудио #5
Идентификатор : 5
Формат : AC-3
Формат/Информация : Audio Coding 3
Расширение режима : CM (complete main)
Параметр Endianness формата : Big
Идентификатор кодека : 2000
Продолжительность : 1 ч. 30 м.
Вид битрейта : Постоянный
Битрейт : 192 Кбит/сек
Каналы : 2 канала
Расположение каналов : Front: L R
Частота : 48,0 КГц
Битовая глубина : 16 бит
Метод сжатия : С потерями
Размер потока : 125 Мбайт (8%)
Выравнивание : Разделение по промежуткам
Продолжительность промежутка : 40 мс. (1,00 видеокадр)
Время предзагрузки промежутка : 500 мс.

Скриншоты

[Профиль] [ЛС]
Кто просматривает тему:

Форум Тема Автор Размер
PBS PBS: Тайны Мертвых. Загадка серебряного фараона / Secrets of the Dead. The Silver Pharaoh [сезон 10 эпизод 1 ] (Энди Вебб / Andy Webb) [2010 г., Документальный, научно-познавательный, и... skorpionN 1.31 GB
Отечественные мультфильмы Ваня Датский (Николай Серебряков) [1974 г., мультфильм, DVB] TorrentFilm 1.03 GB
Отечественные мультфильмы Ваня Датский (Николай Серебряков) [1974, Кукольный мультфильм, DVDRip] TorrentFilm 258 MB
Фантастика и фэнтези Глен Кук – Приключения Гаррета 01. Сладкозвучный серебряный блюз (2015) MP3 Swager 437 MB
Фильмы (DVD 5/9) Измена (Кирилл Серебренников) [2012, Россия, триллер, драма, DVD5 (Сжатый)] исх. R5, + Sub Eng + Original Rus TorrentFilm 4.35 GB
Фильмы (DVD 5/9) Измена (Кирилл Серебренников) [2012, Россия, триллер, драма, DVD9] R5 Sub Eng + Original Rus TorrentFilm 7.49 GB
Фильмы (DVD 5/9) Изображая жертву (Кирилл Серебренников) [2006, Россия, комедия, DVD5 (Сжатый)] TorrentFilm 4.2 GB
Научная и техническая литература П. Тихонов - Справочная книжка для золотых и серебряных дел мастеров [1904, Справочный материал, PDF] Garik014 46 MB
Показать сообщения:    

Текущее время: Сегодня 14:01

Часовой пояс: GMT



Вы не можете начинать темы
Вы не можете отвечать на сообщения
Вы не можете редактировать свои сообщения
Вы не можете удалять свои сообщения
Вы не можете голосовать в опросах
Вы не можете прикреплять файлы к сообщениям
Вы не можете скачивать файлы