Серебристый звон ручья (Игорь Кечаев) [2012, Россия, мелодрама, HDTV 1080i]

 
Автор Сообщение

TorrentFilm ®

Пол:

Стаж: 1 год 11 месяцев

Сообщений: 7741



Награды: Нет

Торрент-статистика

Создавать темы 01-Янв-2016 00:12

[Цитировать]

Серебристый звон ручья
Страна: Россия
Студия: Россия
Жанр: Мелодрама
Год выпуска: 2012
Продолжительность: 01:30:15
Перевод: Не требуется
Cубтитры: нет
Режиссер: Игорь Кечаев
В ролях: Татьяна Полосина, Ада Роговцева, Илья Ильин, Александр Пашков и другие.
Описание: Леся – сирота, живет в глухой деревушке на берегу ручья у своей старенькой бабушки Шуры, которую местные жители считают колдуньей. На самом деле Шура - потомственная знахарка, обладающая даром лечить людей. Леся с детства помогает бабке собирать травы для целебных отваров, и сама лечит разнообразную живность, которую ей приводят односельчане. Однажды в деревню приезжает Петр – восстанавливать дом своих бабушки и дедушки и местную разрушенную церковь. В лесу у ручья девушка случайно встречает Петра, и между ними сразу возникает взаимная симпатия. Но Лесе давно не дает проходу Василий - фермер из соседней деревни. Он настроен решительно и готов на все, чтобы отвадить от Леси любого ухажера.
Сэмпл: http://multi-up.com/844066
Тип релиза: HDTV 1080i
Контейнер: TS
Релиз -

Запись чистая. Без посторонних надписей. Выкладывается, как есть.
Качество видео: HDTV 1080i
Формат видео: TS
Видео: AVC, 1920x1080 (16:9), 25 fps, 7853 Kbps, 0.151 bit/pixel
Аудио: MPEG Audio, 48 kHz, stereo, 192 Kbps

MediaInfo

GeneralID : 1 (0x1)Complete name : N:\ВЫКЛАДКА\HDTV\Фильмы\Серебристый звон ручья (2012, Мелодрама, HDTV) (MYDIMKA).tsFormat : MPEG-TSFile size : 5.32 GiBDuration : 1h 30mnOverall bit rate mode : VariableOverall bit rate : 8 445 Kbps
VideoID : 2911 (0xB5F)Menu ID : 1 (0x1)Format : AVCFormat/Info : Advanced Video CodecFormat profile : High@L4.0Format settings, CABAC : YesFormat settings, ReFrames : 3 framesCodec ID : 27Duration : 1h 30mnBit rate : 7 834 KbpsWidth : 1 920 pixelsHeight : 1 080 pixelsDisplay aspect ratio : 16:9Frame rate : 25.000 fpsColor space : YUVChroma subsampling : 4:2:0Bit depth : 8 bitsScan type : MBAFFBits/(Pixel*Frame) : 0.151Stream size : 4.94 GiB (93%)
AudioID : 2912 (0xB60)Menu ID : 1 (0x1)Format : MPEG AudioFormat version : Version 1Format profile : Layer 2Mode : Joint stereoMode extension : Intensity Stereo + MS StereoCodec ID : 3Duration : 1h 30mnBit rate mode : ConstantBit rate : 192 KbpsChannel(s) : 2 channelsSampling rate : 48.0 KHzCompression mode : LossyStream size : 124 MiB (2%)Language : Russian

Скриншот c названием фильма

Скриншоты


[Профиль] [ЛС]
Кто просматривает тему:

Форум Тема Автор Размер
PBS PBS: Тайны Мертвых. Загадка серебряного фараона / Secrets of the Dead. The Silver Pharaoh [сезон 10 эпизод 1 ] (Энди Вебб / Andy Webb) [2010 г., Документальный, научно-познавательный, и... skorpionN 1.31 GB
Отечественные мультфильмы Ваня Датский (Николай Серебряков) [1974 г., мультфильм, DVB] TorrentFilm 1.03 GB
Отечественные мультфильмы Ваня Датский (Николай Серебряков) [1974, Кукольный мультфильм, DVDRip] TorrentFilm 258 MB
Фантастика и фэнтези Глен Кук – Приключения Гаррета 01. Сладкозвучный серебряный блюз (2015) MP3 Swager 437 MB
Фильмы (DVD 5/9) Измена (Кирилл Серебренников) [2012, Россия, триллер, драма, DVD5 (Сжатый)] исх. R5, + Sub Eng + Original Rus TorrentFilm 4.35 GB
Фильмы (DVD 5/9) Измена (Кирилл Серебренников) [2012, Россия, триллер, драма, DVD9] R5 Sub Eng + Original Rus TorrentFilm 7.49 GB
Фильмы (DVD 5/9) Изображая жертву (Кирилл Серебренников) [2006, Россия, комедия, DVD5 (Сжатый)] TorrentFilm 4.2 GB
Научная и техническая литература П. Тихонов - Справочная книжка для золотых и серебряных дел мастеров [1904, Справочный материал, PDF] Garik014 46 MB
Показать сообщения:    

Текущее время: Сегодня 14:00

Часовой пояс: GMT



Вы не можете начинать темы
Вы не можете отвечать на сообщения
Вы не можете редактировать свои сообщения
Вы не можете удалять свои сообщения
Вы не можете голосовать в опросах
Вы не можете прикреплять файлы к сообщениям
Вы не можете скачивать файлы