Сердце храбреца (Борис Дежкин, Геннадий Филиппов) [1951 г., мультфильм, DVB] переозвучка "Детский сеанс" 2001

 
Автор Сообщение

TorrentFilm ®

Пол:

Стаж: 2 года

Сообщений: 7741



Награды: Нет

Торрент-статистика

Создавать темы 04-Янв-2016 00:02

[Цитировать]

Сердце храбреца
Жанр: мультфильм
Год выпуска: 1951
Продолжительность: 00:17:37
Режиссёр: Борис Дежкин, Геннадий Филиппов
Описание: мультфильм о том, как трус Индига стал храбрецом, спасая своего брата Соломдигу ...
Доп. информация: по мотивам удэгейской сказки Д.Нагишкина "Семь Страхов"

Релиз группы:
Трансляция спутникового канала: "Карусель"
Качество видео: DVB
Формат видео: MPEG-PS
Видео: MPEG2 Video, 720x576, 25 fps, 3400 kbps
Аудио: MPEG Audio, 2 сh, 48 kHz, 192 kbps переозвучка "Детский сеанс" 2001

MediaInfo

D:\Сердце храбреца. (1951)_DVB by SLuMeP.mpg
General
Complete name : D:\Сердце храбреца. (1951)_DVB by SLuMeP.mpg
Format : MPEG-PS
File size : 459 MiB
Duration : 17mn 37s
Overall bit rate mode : Variable
Overall bit rate : 3 644 Kbps
Video #224
ID : 224 (0xE0)
Format : MPEG Video
Format version : Version 2
Format profile : Main@Main
Format settings, BVOP : Yes
Format settings, Matrix : Custom
Duration : 17mn 37s
Bit rate mode : Variable
Bit rate : 3 379 Kbps
Maximum bit rate : 5 000 Kbps
Width : 720 pixels
Height : 576 pixels
Display aspect ratio : 4:3
Frame rate : 25.000 fps
Standard : PAL
Color space : YUV
Chroma subsampling : 4:2:0
Bit depth : 8 bits
Scan type : Interlaced
Scan order : Top Field First
Compression mode : Lossy
Bits/(Pixel*Frame) : 0.326
Stream size : 426 MiB (93%)
Audio #192
ID : 192 (0xC0)
Format : MPEG Audio
Format version : Version 1
Format profile : Layer 2
Duration : 17mn 37s
Bit rate mode : Constant
Bit rate : 192 Kbps
Channel(s) : 2 channels
Sampling rate : 48.0 KHz
Compression mode : Lossy
Stream size : 24.2 MiB (5%)

Скриншоты



[Профиль] [ЛС]
Показать сообщения:    

Текущее время: Сегодня 14:52

Часовой пояс: GMT



Вы не можете начинать темы
Вы не можете отвечать на сообщения
Вы не можете редактировать свои сообщения
Вы не можете удалять свои сообщения
Вы не можете голосовать в опросах
Вы не можете прикреплять файлы к сообщениям
Вы не можете скачивать файлы