Сердце дракона 3: Проклятье чародея / Dragonheart 3: The Sorcerer's Curse (2015) BDRip 720p

 
Автор Сообщение

sergej644 ®

Пол:

Стаж: 4 года 11 месяцев

Сообщений: 6046

Откуда: Soviet Union



Награды: Нет

Торрент-статистика

Создавать темы 18-Фев-2015 21:08

[Цитировать]

Оригинальное название: Dragonheart 3: The Sorcerer's Curse
Название: Сердце дракона 3: Проклятье чародея
Жанр: Фэнтези, Приключения
Режиссёр: Колин Тиг
Год: 2015
В ролях: Джулиан Моррис, Тамзин Мерчант, Джонджо О Нил, Джасса Ахлувалиа, Бен Кингсли

…В условной, мифологической Британии - идет война между рыцарями, охраняющими южные земли и кельтскими племенами с севера. Их разделяет знаменитый Адрианов Вал. Когда на землю падает звезда, юный и отважный воин Гарет решает отправиться на ее поиски. Ведь согласно легендам, там, куда упала звезда, хранятся несметные сокровища. Он перелезает через стену и оказывается в таинственном северном лесу, населенном колдунами, девами-воительницами и драконами...
Страна: США
Студия: Raffaella Productions
Продолжительность: 01:37:05
Перевод: Любительский двухголосый (RAIM & NASTR)
Контейнер: MKV
Кодек: MPEG-4 (AVC)
Качество: BDRip
Видео: 4925 kb/s, 1280x720
Аудио 1: Russian: AC3, 640 kb/s (6 ch)
Аудио 2: English: DTS, 1510 kb/s (6 ch)
Субтитры: Отсутствуют
-

Mediainfo:

Общее
Уникальный идентификатор                 : 196815787804591815181485895506772114429 (0x941157887814F8BABFDB8170BF303BFD)
Полное имя                               : Сердце дракона 3 Проклятье чародея  Dragonheart 3 The Sorcerer's Curse (2015) BDRip 720pDragonheart.3.The.Sorcerers.Curse.2015.BDRip.720p.mkv
Формат                                   : Matroska
Версия формата                           : Version 4 / Version 2
Размер файла                             : 4,80 Гбайт
Продолжительность                        : 1 ч. 37 м.
Общий поток                              : 7075 Кбит/сек
Дата кодирования                         : UTC 2015-02-17 16:40:52
Программа кодирования                    : mkvmerge v6.5.0 ('Isn't she lovely') built on Oct 20 2013 12:50:05
Библиотека кодирования                   : libebml v1.3.0 + libmatroska v1.4.1
Видео
Идентификатор                            : 1
Формат                                   : AVC
Формат/Информация                        : Advanced Video Codec
Профиль формата                          : High@L4.1
Параметр CABAC формата                   : Да
Параметр ReFrames формата                : 5 кадров
Идентификатор кодека                     : V_MPEG4/ISO/AVC
Продолжительность                        : 1 ч. 37 м.
Битрейт                                  : 4925 Кбит/сек
Ширина                                   : 1280 пикселей
Высота                                   : 720 пикселей
Соотношение сторон                       : 16:9
Режим частоты кадров                     : Постоянный
Частота кадров                           : 23,976 кадра/сек
Цветовое пространство                    : YUV
Субдискретизация насыщенности            : 4:2:0
Битовая глубина                          : 8 бит
Тип развёртки                            : Прогрессивная
Бит/(Пиксели*Кадры)                      : 0.223
Размер потока                            : 3,25 Гбайт (68%)
Библиотека кодирования                   : x264 core 144 r2525 40bb568
Настройки программы                      : cabac=1 / ref=5 / deblock=1:0:0 / analyse=0x3:0x133 / me=umh / subme=7 / psy=1 / psy_rd=1.00:0.00 / mixed_ref=1 / me_range=16 / chroma_me=1 / trellis=1 / 8x8dct=1 / cqm=0 / deadzone=21,11 / fast_pskip=0 / chroma_qp_offset=-2 / threads=60 / lookahead_threads=5 / sliced_threads=0 / nr=0 / decimate=1 / interlaced=0 / bluray_compat=0 / constrained_intra=0 / bframes=3 / b_pyramid=2 / b_adapt=1 / b_bias=0 / direct=1 / weightb=1 / open_gop=0 / weightp=2 / keyint=250 / keyint_min=23 / scenecut=40 / intra_refresh=0 / rc_lookahead=40 / rc=2pass / mbtree=1 / bitrate=4925 / ratetol=1.0 / qcomp=0.60 / qpmin=0 / qpmax=69 / qpstep=4 / cplxblur=20.0 / qblur=0.5 / ip_ratio=1.40 / aq=1:1.00
Язык                                     : English
Default                                  : Да
Forced                                   : Нет
Аудио #1
Идентификатор                            : 2
Формат                                   : AC-3
Формат/Информация                        : Audio Coding 3
Расширение режима                        : CM (complete main)
Параметр Endianness формата              : Big
Идентификатор кодека                     : A_AC3
Продолжительность                        : 1 ч. 37 м.
Вид битрейта                             : Постоянный
Битрейт                                  : 640 Кбит/сек
Каналы                                   : 6 каналов
Расположение каналов                     : Front: L C R, Side: L R, LFE
Частота                                  : 48,0 КГц
Битовая глубина                          : 16 бит
Метод сжатия                             : С потерями
Размер потока                            : 445 Мбайт (9%)
Язык                                     : Russian
Default                                  : Да
Forced                                   : Нет
Аудио #2
Идентификатор                            : 3
Формат                                   : DTS
Формат/Информация                        : Digital Theater Systems
Идентификатор кодека                     : A_DTS
Продолжительность                        : 1 ч. 37 м.
Вид битрейта                             : Постоянный
Битрейт                                  : 1510 Кбит/сек
Каналы                                   : 6 каналов
Расположение каналов                     : Front: L C R, Side: L R, LFE
Частота                                  : 48,0 КГц
Битовая глубина                          : 24 бит
Метод сжатия                             : С потерями
Размер потока                            : 1,02 Гбайт (21%)
Язык                                     : English
Default                                  : Нет
Forced                                   : Нет
Меню
00:00:00.000                             : en:00:00:00.000
00:05:02.928                             : en:00:05:02.928
00:10:09.818                             : en:00:10:09.818
00:15:08.116                             : en:00:15:08.116
00:19:36.592                             : en:00:19:36.592
00:24:00.356                             : en:00:24:00.356
00:27:27.813                             : en:00:27:27.813
00:33:19.164                             : en:00:33:19.164
00:38:51.788                             : en:00:38:51.788
00:43:22.308                             : en:00:43:22.308
00:49:31.135                             : en:00:49:31.135
00:52:57.966                             : en:00:52:57.966
00:59:48.251                             : en:00:59:48.251
01:07:40.807                             : en:01:07:40.807
01:12:48.197                             : en:01:12:48.197
01:18:17.818                             : en:01:18:17.818
01:22:14.805                             : en:01:22:14.805
01:26:47.577                             : en:01:26:47.577
01:30:37.932                             : en:01:30:37.932
01:31:44.958                             : en:01:31:44.958
-

Скриншоты

--
[Профиль] [ЛС]
Показать сообщения:    

Текущее время: Сегодня 13:05

Часовой пояс: GMT



Вы не можете начинать темы
Вы не можете отвечать на сообщения
Вы не можете редактировать свои сообщения
Вы не можете удалять свои сообщения
Вы не можете голосовать в опросах
Вы не можете прикреплять файлы к сообщениям
Вы не можете скачивать файлы