Сердце дракона 3: Заклятие друида / Сердце дракона 3: Проклятье чародея / Dragonheart 3: The sorcerer\'s curse (Колин Тиг / Colin Teague) [2015 г., США, фэнтези, приключения, HDRip] Dub + Original (Eng) + Sub (Rus, Eng)

 
Автор Сообщение

TorrentFilm ®

Пол:

Стаж: 2 года

Сообщений: 7741



Награды: Нет

Торрент-статистика

Создавать темы 02-Июн-2015 00:04

[Цитировать]

-Сердце дракона 3: Заклятие друида / Сердце дракона 3: Проклятье чародея / Dragonheart 3: The sorcerer's curse--Год выпуска: 2015Страна: СШАЖанр: фэнтези, приключения-Продолжительность: 01:37:10Перевод: Профессиональный (дублированный) [лицензия]Субтитры: нетСубтитры: (русские, английские)Оригинальная аудиодорожка: английская--Режиссер:Колин Тиг / Colin Teague-В ролях:Джасса Ахлувалиа, Джонджо О’Нил, Джэйк Каррен, Доминик Мафэм, Кристофер Фэйрбэнк, Ozama Oancea, Гарри Смит, Дэниэл Эверитт-Лок, Шербан Челя, Дункан Престон-Описание:
В условной, мифологической Британии идет война между рыцарями, охраняющими южные земли и кельтскими племенами с севера. Их разделяет знаменитый Адрианов Вал. Когда на землю падает звезда, юный и отважный воин Гарет решает отправиться на ее поиски. Ведь согласно легендам, там, куда упала звезда, хранятся несметные сокровища. Он перелезает через стену и оказывается в таинственном северном лесу, населенном колдунами, девами-воительницами и драконами…-Фильм заявлен как часть франшизы "Сердце дракона", но в отличие от предыдущих частей (фильмы 1996 и 2000 годов), имевших общую сюжетную линию, рассказывает самостоятельную историю.
--Дополнительная информация:- -Сэмпл Рип совместим с бытовыми DVD-проигрывателями.--Качество видео: HDRip (Исходник: BDRip 1080p )
Формат видео: AVI
Видео: 720x400 (16:9), 23.976 fps, XviD build 73 ~2392 kbps avg, 0.346 bit/pixel
Аудио №1: 48 kHz, AC3 Dolby Digital, 3/2 (L,C,R,l,r) + LFE ch, 384 kbps (Dub)
Аудио №2: 48 kHz, AC3 Dolby Digital, 3/2 (L,C,R,l,r) + LFE ch, 384 kbps (Original)-

Скриншоты



Название

MediaInfo

General
Complete name : \Serdze_drakona_3_(2015).HDRip\Serdze_drakona_3_(2015).HDRip.ac3.Dub.Eng_[All.Films][RG].avi
Format : AVI
Format/Info : Audio Video Interleave
Format profile : OpenDML
File size : 2.16 GiB
Duration : 1h 37mn
Overall bit rate : 3 177 Kbps
Movie name : Сердце дракона 3: Заклятие друида / Dragonheart 3: The sorcerer's curse (2015) HDRip | [All.Films][RG]
Director : [torrentfilm.net]
Writing application : VirtualDubMod 1.5.10.3 | www.virtualdub-fr.org || (build 2550/release)
Video
ID : 0
Format : MPEG-4 Visual
Format profile : Advanced Simple@L5
Format settings, BVOP : 1
Format settings, QPel : No
Format settings, GMC : No warppoints
Format settings, Matrix : Custom
Codec ID : XVID
Codec ID/Hint : XviD
Duration : 1h 37mn
Bit rate : 2 392 Kbps
Width : 720 pixels
Height : 400 pixels
Display aspect ratio : 16:9
Frame rate : 23.976 fps
Color space : YUV
Chroma subsampling : 4:2:0
Bit depth : 8 bits
Scan type : Progressive
Compression mode : Lossy
Bits/(Pixel*Frame) : 0.346
Stream size : 1.62 GiB (75%)
Writing library : XviD 73
Audio #1
ID : 1
Format : AC-3
Format/Info : Audio Coding 3
Mode extension : CM (complete main)
Format settings, Endianness : Big
Codec ID : 2000
Duration : 1h 37mn
Bit rate mode : Constant
Bit rate : 384 Kbps
Channel(s) : 6 channels
Channel positions : Front: L C R, Side: L R, LFE
Sampling rate : 48.0 KHz
Bit depth : 16 bits
Compression mode : Lossy
Stream size : 267 MiB (12%)
Alignment : Split accross interleaves
Interleave, duration : 42 ms (1.00 video frame)
Interleave, preload duratio : 500 ms
Audio #2
ID : 2
Format : AC-3
Format/Info : Audio Coding 3
Mode extension : CM (complete main)
Format settings, Endianness : Big
Codec ID : 2000
Duration : 1h 37mn
Bit rate mode : Constant
Bit rate : 384 Kbps
Channel(s) : 6 channels
Channel positions : Front: L C R, Side: L R, LFE
Sampling rate : 48.0 KHz
Bit depth : 16 bits
Compression mode : Lossy
Stream size : 267 MiB (12%)
Alignment : Split accross interleaves
Interleave, duration : 42 ms (1.00 video frame)
Interleave, preload duratio : 500 ms
[Профиль] [ЛС]
Показать сообщения:    

Текущее время: Сегодня 01:10

Часовой пояс: GMT



Вы не можете начинать темы
Вы не можете отвечать на сообщения
Вы не можете редактировать свои сообщения
Вы не можете удалять свои сообщения
Вы не можете голосовать в опросах
Вы не можете прикреплять файлы к сообщениям
Вы не можете скачивать файлы