Сердце дракона 3: Заклятие друида / Сердце дракона 3: Проклятье чародея / Dragonheart 3: The sorcerer\'s curse (Колин Тиг / Colin Teague) [2015 г., США, фэнтези, приключения, HDRip-AVC] Dub + Original (Eng) + Sub (Rus, Eng)

 
Автор Сообщение

TorrentFilm ®

Пол:

Стаж: 2 года

Сообщений: 7741



Награды: Нет

Торрент-статистика

Создавать темы 26-Май-2015 00:04

[Цитировать]

-Сердце дракона 3: Заклятие друида / Сердце дракона 3: Проклятье чародея / Dragonheart 3: The sorcerer's curse--Год выпуска: 2015Страна: СШАЖанр: фэнтези, приключения-Продолжительность: 01:37:10Перевод: Профессиональный (дублированный) [лицензия]Субтитры: (русские, английские)Оригинальная аудиодорожка: английская--Режиссер:Колин Тиг / Colin Teague-В ролях:Джасса Ахлувалиа, Джонджо О’Нил, Джэйк Каррен, Доминик Мафэм, Кристофер Фэйрбэнк, Ozama Oancea, Гарри Смит, Дэниэл Эверитт-Лок, Шербан Челя, Дункан Престон-Описание:
В условной, мифологической Британии идет война между рыцарями, охраняющими южные земли и кельтскими племенами с севера. Их разделяет знаменитый Адрианов Вал. Когда на землю падает звезда, юный и отважный воин Гарет решает отправиться на ее поиски. Ведь согласно легендам, там, куда упала звезда, хранятся несметные сокровища. Он перелезает через стену и оказывается в таинственном северном лесу, населенном колдунами, девами-воительницами и драконами…-Фильм заявлен как часть франшизы "Сердце дракона", но в отличие от предыдущих частей (фильмы 1996 и 2000 годов), имевших общую сюжетную линию, рассказывает самостоятельную историю.
--Дополнительная информация:- -Сэмпл Рип совместим с бытовыми DVD-проигрывателями.--Качество видео: HDRip-AVC (Исходник: BDRip 1080p )
Формат видео: MKV
Видео: AVC (x264), 1088x612 (16:9), 23.976 fps, ~2440 kbps avg, 0.153 bit/pixel
Аудио №1: 48 kHz, AC3 Dolby Digital, 3/2 (L,C,R,l,r) + LFE ch, 384 kbps (Dub)
Аудио №2: 48 kHz, AC3 Dolby Digital, 3/2 (L,C,R,l,r) + LFE ch, 384 kbps (Original)
Главы: есть-

Скриншоты



Название

MediaInfo/loglog

x264 [info]: frame I:1009 Avg QP:15.60 size: 75431
x264 [info]: frame P:32154 Avg QP:18.37 size: 25193
x264 [info]: frame B:106636 Avg QP:19.42 size: 8364
x264 [info]: consecutive B-frames: 2.6% 3.2% 11.2% 20.1% 17.9% 37.7% 4.1% 1.0% 0.5% 0.5% 0.3% 0.7% 0.1% 0.0% 0.0% 0.0% 0.1%
x264 [info]: mb I I16..4: 7.0% 74.8% 18.2%
x264 [info]: mb P I16..4: 0.8% 9.7% 1.6% P16..4: 33.0% 37.2% 10.4% 0.0% 0.0% skip: 7.3%
x264 [info]: mb B I16..4: 0.1% 1.1% 0.3% B16..8: 33.6% 19.5% 2.6% direct: 4.4% skip:38.5% L0:41.3% L1:47.1% BI:11.6%
x264 [info]: 8x8 transform intra:78.2% inter:59.9%
x264 [info]: direct mvs spatial:99.0% temporal:1.0%
x264 [info]: coded y,uvDC,uvAC intra: 84.6% 77.6% 47.3% inter: 20.7% 14.6% 5.2%
x264 [info]: i16 v,h,dc,p: 20% 11% 7% 63%
x264 [info]: i8 v,h,dc,ddl,ddr,vr,hd,vl,hu: 11% 6% 5% 10% 15% 14% 14% 13% 13%
x264 [info]: i4 v,h,dc,ddl,ddr,vr,hd,vl,hu: 30% 4% 5% 8% 13% 12% 11% 9% 9%
x264 [info]: i8c dc,h,v,p: 35% 28% 21% 16%
x264 [info]: Weighted P-Frames: Y:8.0% UV:4.1%
x264 [info]: ref P L0: 54.3% 7.7% 15.0% 6.9% 5.1% 3.9% 3.2% 1.9% 1.6% 0.4% 0.0%
x264 [info]: ref B L0: 77.9% 11.5% 4.7% 2.3% 1.6% 1.1% 0.6% 0.2%
x264 [info]: ref B L1: 94.1% 5.9%
x264 [info]: kb/s:2439.52
General
Unique ID : 209210221809841601242644671225762334280 (0x9D646C4F559B90DC94676708A3A2C648)
Complete name :\Serdze_drakona_3_(2015).HDRip-AVC.ac3.Dub.Eng.Sub_[All.Films][RG].mkv
Format : Matroska
Format version : Version 4 / Version 2
File size : 2.18 GiB
Duration : 1h 37mn
Overall bit rate : 3 209 Kbps
Movie name : Сердце дракона 3: Заклятие друида / Dragonheart 3: The sorcerer's curse (2015) HDRip-AVC | [torrentfilm.net][All.Films][RG]
Encoded date : UTC 2015-05-25 16:10:00
Writing application : mkvmerge v7.5.0 ('Glass Culture') 32bit built on Jan 10 2015 09:41:31
Writing library : libebml v1.3.1 + libmatroska v1.4.2
DURATION : 01:37:10.848000000
NUMBER_OF_FRAMES : 182214
NUMBER_OF_BYTES : 279880704
_STATISTICS_WRITING_APP : mkvmerge v7.5.0 ('Glass Culture') 32bit built on Jan 10 2015 09:41:31
_STATISTICS_WRITING_DATE_UT : 2015-05-25 16:10:00
_STATISTICS_TAGS : BPS DURATION NUMBER_OF_FRAMES NUMBER_OF_BYTES
Video
ID : 1
Format : AVC
Format/Info : Advanced Video Codec
Format profile : High@L4.1
Format settings, CABAC : Yes
Format settings, ReFrames : 9 frames
Codec ID : V_MPEG4/ISO/AVC
Duration : 1h 37mn
Bit rate : 2 440 Kbps
Width : 1 088 pixels
Height : 612 pixels
Display aspect ratio : 16:9
Frame rate mode : Constant
Frame rate : 23.976 fps
Color space : YUV
Chroma subsampling : 4:2:0
Bit depth : 8 bits
Scan type : Progressive
Bits/(Pixel*Frame) : 0.153
Stream size : 1.61 GiB (74%)
Writing library : x264 core 144 r2525 40bb568
Encoding settings : cabac=1 / ref=9 / deblock=1:-2:-1 / analyse=0x3:0x113 / me=umh / subme=11 / psy=1 / psy_rd=1.05:0.00 / mixed_ref=1 / me_range=36 / chroma_me=1 / trellis=2 / 8x8dct=1 / cqm=0 / deadzone=21,11 / fast_pskip=0 / chroma_qp_offset=-2 / threads=6 / lookahead_threads=1 / sliced_threads=0 / nr=0 / decimate=0 / interlaced=0 / bluray_compat=0 / constrained_intra=0 / bframes=16 / b_pyramid=2 / b_adapt=2 / b_bias=0 / direct=3 / weightb=1 / open_gop=0 / weightp=2 / keyint=240 / keyint_min=23 / scenecut=40 / intra_refresh=0 / rc_lookahead=60 / rc=2pass / mbtree=0 / bitrate=2440 / ratetol=1.0 / qcomp=0.60 / qpmin=10 / qpmax=51 / qpstep=4 / cplxblur=20.0 / qblur=0.5 / vbv_maxrate=50000 / vbv_bufsize=62500 / nal_hrd=none / filler=0 / ip_ratio=1.30 / pb_ratio=1.20 / aq=2:1.00 / zones=134400,139799,q=30
Default : Yes
Forced : No
Audio #1
ID : 2
Format : AC-3
Format/Info : Audio Coding 3
Mode extension : CM (complete main)
Format settings, Endianness : Big
Codec ID : A_AC3
Duration : 1h 37mn
Bit rate mode : Constant
Bit rate : 384 Kbps
Channel(s) : 6 channels
Channel positions : Front: L C R, Side: L R, LFE
Sampling rate : 48.0 KHz
Bit depth : 16 bits
Compression mode : Lossy
Stream size : 267 MiB (12%)
Title : Дубляж
Language : Russian
Default : No
Forced : No
Audio #2
ID : 3
Format : AC-3
Format/Info : Audio Coding 3
Mode extension : CM (complete main)
Format settings, Endianness : Big
Codec ID : A_AC3
Duration : 1h 37mn
Bit rate mode : Constant
Bit rate : 384 Kbps
Channel(s) : 6 channels
Channel positions : Front: L C R, Side: L R, LFE
Sampling rate : 48.0 KHz
Bit depth : 16 bits
Compression mode : Lossy
Stream size : 267 MiB (12%)
Title : Original
Language : English
Default : No
Forced : No
Text #1
ID : 4
Format : UTF-8
Codec ID : S_TEXT/UTF8
Codec ID/Info : UTF-8 Plain Text
Language : Russian
Default : No
Forced : No
Text #2
ID : 5
Format : UTF-8
Codec ID : S_TEXT/UTF8
Codec ID/Info : UTF-8 Plain Text
Language : English
Default : No
Forced : No
Menu
00:00:00.000 : en:Chapter 01
00:05:03.303 : en:Chapter 02
00:10:09.817 : en:Chapter 03
00:15:08.115 : en:Chapter 04
00:19:36.425 : en:Chapter 05
00:24:00.355 : en:Chapter 06
00:27:27.812 : en:Chapter 07
00:33:19.163 : en:Chapter 08
00:38:51.787 : en:Chapter 09
00:43:22.308 : en:Chapter 10
00:49:31.134 : en:Chapter 11
00:52:57.966 : en:Chapter 12
00:59:48.251 : en:Chapter 13
01:07:40.806 : en:Chapter 14
01:12:48.197 : en:Chapter 15
01:18:17.818 : en:Chapter 16
01:22:14.804 : en:Chapter 17
01:26:47.577 : en:Chapter 18
01:30:37.932 : en:Chapter 19
01:31:44.832 : en:Chapter 20FAQ по просмотру MKV/h.264/AAC
[Профиль] [ЛС]
Показать сообщения:    

Текущее время: Сегодня 00:31

Часовой пояс: GMT



Вы не можете начинать темы
Вы не можете отвечать на сообщения
Вы не можете редактировать свои сообщения
Вы не можете удалять свои сообщения
Вы не можете голосовать в опросах
Вы не можете прикреплять файлы к сообщениям
Вы не можете скачивать файлы