Сердце дракона 3: Заклятие друида / Dragonheart 3: The sorcerer\'s curse (Колин Тиг / Colin Teague) [2015 г., США, фэнтези, приключения, HDRip] Dub

 
Автор Сообщение

TorrentFilm ®

Пол:

Стаж: 2 года

Сообщений: 7741



Награды: Нет

Торрент-статистика

Создавать темы 24-Май-2015 00:04

[Цитировать]

-Сердце дракона 3: Заклятие друида / Сердце дракона 3: Проклятье чародея / Dragonheart 3: The sorcerer's curse--Год выпуска: 2015Страна: СШАЖанр: фэнтези, приключения-Продолжительность: 01:37:10Перевод: Профессиональный (дублированный) [лицензия]Субтитры: нет--Режиссер:Колин Тиг / Colin Teague-В ролях:Джасса Ахлувалиа, Джонджо О’Нил, Джэйк Каррен, Доминик Мафэм, Кристофер Фэйрбэнк, Ozama Oancea, Гарри Смит, Дэниэл Эверитт-Лок, Шербан Челя, Дункан Престон-Описание:
В условной, мифологической Британии идет война между рыцарями, охраняющими южные земли и кельтскими племенами с севера. Их разделяет знаменитый Адрианов Вал. Когда на землю падает звезда, юный и отважный воин Гарет решает отправиться на ее поиски. Ведь согласно легендам, там, куда упала звезда, хранятся несметные сокровища. Он перелезает через стену и оказывается в таинственном северном лесу, населенном колдунами, девами-воительницами и драконами…-Фильм заявлен как часть франшизы "Сердце дракона", но в отличие от предыдущих частей (фильмы 1996 и 2000 годов), имевших общую сюжетную линию, рассказывает самостоятельную историю.
--Дополнительная информация:- -Сэмпл Рип совместим с бытовыми DVD-проигрывателями.--Качество видео: HDRip (Исходник: BDRip 1080p )
Формат видео: AVI
Видео: 688x384 (1.79:1), 23.976 fps, XviD build 73 ~933 kbps avg, 0.15 bit/pixel
Аудио: MPEG Layer 3, 2 ch, 48 kHz, 128.00 kbps (DUB)-

Скриншоты



Название

MediaInfo

General
Complete name : \Serdze_drakona_3_(2015).HDRip.mp3.Dub_[All.Films][RG].avi
Format : AVI
Format/Info : Audio Video Interleave
File size : 744 MiB
Duration : 1h 37mn
Overall bit rate : 1 071 Kbps
Movie name : Сердце дракона 3: Заклятие друида / Dragonheart 3: The sorcerer's curse (2015) HDRip | [All.Films][RG]
Director : [torrentfilm.net]
Writing application : VirtualDubMod 1.5.10.3 | www.virtualdub-fr.org || (build 2550/release)
Writing library : VirtualDubMod build 2550/release
Video
ID : 0
Format : MPEG-4 Visual
Format profile : Advanced Simple@L5
Format settings, BVOP : 2
Format settings, QPel : No
Format settings, GMC : No warppoints
Format settings, Matrix : Custom
Codec ID : XVID
Codec ID/Hint : XviD
Duration : 1h 37mn
Bit rate : 934 Kbps
Width : 688 pixels
Height : 384 pixels
Display aspect ratio : 16:9
Frame rate : 23.976 fps
Color space : YUV
Chroma subsampling : 4:2:0
Bit depth : 8 bits
Scan type : Progressive
Compression mode : Lossy
Bits/(Pixel*Frame) : 0.147
Stream size : 649 MiB (87%)
Writing library : XviD 73
Audio
ID : 1
Format : MPEG Audio
Format version : Version 1
Format profile : Layer 3
Codec ID : 55
Codec ID/Hint : MP3
Duration : 1h 37mn
Bit rate mode : Constant
Bit rate : 128 Kbps
Channel(s) : 2 channels
Sampling rate : 48.0 KHz
Compression mode : Lossy
Stream size : 88.9 MiB (12%)
Alignment : Aligned on interleaves
Interleave, duration : 42 ms (1.00 video frame)
Interleave, preload duratio : 504 ms
Writing library : LAME3.99.5
[Профиль] [ЛС]
Показать сообщения:    

Текущее время: Сегодня 12:11

Часовой пояс: GMT



Вы не можете начинать темы
Вы не можете отвечать на сообщения
Вы не можете редактировать свои сообщения
Вы не можете удалять свои сообщения
Вы не можете голосовать в опросах
Вы не можете прикреплять файлы к сообщениям
Вы не можете скачивать файлы