Сердце дракона / Long de Xin (1985) BDRip 1080p от Freak Chaos | P, A

 
Автор Сообщение

Russian Mafia ®

Пол:

Стаж: 1 год 8 месяцев

Сообщений: 4246



Награды: 10 (Подробнее)

Mega Seeder 2 (Количество: 1) Mega Seeder 5 (Количество: 1) За внесенный вклад в развитие сайта (Количество: 1)
Торрент-статистика

Создавать темы 14-Окт-2016 10:42

[Цитировать]

Информация о фильме
Название: Сердце дракона
Оригинальное название: Long de Xin
Год выхода: 1985
Жанр: Боевик, комедия, драма
Режиссер: Саммо Хунг, Фрут Чан
В ролях: Джеки Чан, Саммо Хунг, Эмили Чу, Ман Хой, Чинг-Йинг Лам, Ланг Чан, Юэнь Ва, Кар Лок Чин, Кори Юэнь
О фильме:
Молодой полицейский Тед, поступивший в спецподразделение полиции, получает первое задание. Во время расследования Тед узнает, что его братец Денни, непутевый толстяк и недотепа, оказался замешанным в торговле краденым. Спасение единственного родного человека становится главным заданием Теда.
Страна: Гонконг
Продолжительность: 01:38:41
Перевод:
1. Профессиональный многоголосый закадровый
2. Авторский одноголосый закадровый (Юрий Живов)
Файл
Кодек: x264, AVC
Качество: BDRip 1080p
Видео: 1920x1080, 8888 kbps, 23,976 fps
Звук:
1. AC-3, 192 kbps, 48 KHz, 2 channels
2. AC-3, 160 kbps, 48 KHz, 2 channels

Mediainfo

General
Unique ID : 229282274506391205826605432899398881729 (0xAC7E28E9E4541E638DB74380FDC951C1)
Complete name : Сердце дракона [Long de Xin, 1985] 1080p.mkv
Format : Matroska
Format version : Version 2
File size : 6.37 GiB
Duration : 1 h 38 min
Overall bit rate : 9 238 kb/s
Encoded date : UTC 2016-10-11 16:23:46
Writing application : mkvmerge v4.2.0 ('No Talking') сборка от Jul 28 2010 18:38:23
Writing library : libebml v1.0.0 + libmatroska v1.0.0
Video
ID : 1
Format : AVC
Format/Info : Advanced Video Codec
Format profile : High@L4.1
Format settings, CABAC : Yes
Format settings, ReFrames : 4 frames
Muxing mode : Header stripping
Codec ID : V_MPEG4/ISO/AVC
Duration : 1 h 38 min
Bit rate : 8 888 kb/s
Width : 1 920 pixels
Height : 1 080 pixels
Display aspect ratio : 16:9
Frame rate mode : Constant
Frame rate : 23.976 (24000/1001) FPS
Color space : YUV
Chroma subsampling : 4:2:0
Bit depth : 8 bits
Scan type : Progressive
Bits/(Pixel*Frame) : 0.179
Stream size : 6.00 GiB (94%)
Title : Heart of the Dragon (1985)
Writing library : x264 core 148 r2638 7599210
Encoding settings : cabac=1 / ref=4 / deblock=1:0:0 / analyse=0x3:0x133 / me=umh / subme=9 / psy=1 / psy_rd=1.00:0.00 / mixed_ref=1 / me_range=16 / chroma_me=1 / trellis=2 / 8x8dct=1 / cqm=0 / deadzone=21,11 / fast_pskip=1 / chroma_qp_offset=-2 / threads=6 / lookahead_threads=1 / sliced_threads=0 / nr=0 / decimate=1 / interlaced=0 / bluray_compat=0 / constrained_intra=0 / bframes=3 / b_pyramid=2 / b_adapt=2 / b_bias=0 / direct=3 / weightb=1 / open_gop=0 / weightp=2 / keyint=240 / keyint_min=23 / scenecut=40 / intra_refresh=0 / rc_lookahead=60 / rc=2pass / mbtree=1 / bitrate=8888 / ratetol=1.0 / qcomp=0.60 / qpmin=0 / qpmax=51 / qpstep=4 / cplxblur=20.0 / qblur=0.5 / vbv_maxrate=62500 / vbv_bufsize=78125 / nal_hrd=none / filler=0 / ip_ratio=1.40 / aq=1:1.00
Default : Yes
Forced : No
Statistics Tags Issue : mkvmerge v8.5.2 ('Crosses') 32bit 2016-10-11 16:15:24 / mkvmerge v4.2.0 ('No Talking') сборка от Jul 28 2010 18:38:23 2016-10-11 16:23:46
FromStats_BitRate : 8887603
FromStats_Duration : 01:38:40.915000000
FromStats_FrameCount : 141960
FromStats_StreamSize : 6577842768
Audio #1
ID : 2
Format : AC-3
Format/Info : Audio Coding 3
Mode extension : CM (complete main)
Format settings, Endianness : Big
Muxing mode : Header stripping
Codec ID : A_AC3
Duration : 1 h 38 min
Bit rate mode : Constant
Bit rate : 192 kb/s
Channel(s) : 2 channels
Channel positions : Front: L R
Sampling rate : 48.0 kHz
Frame rate : 31.250 FPS (1536 spf)
Compression mode : Lossy
Delay relative to video : 28 ms
Stream size : 136 MiB (2%)
Title : Многоголосый
Language : Russian
Default : Yes
Forced : No
Statistics Tags Issue : mkvmerge v8.5.2 ('Crosses') 32bit 2016-10-11 16:15:24 / mkvmerge v4.2.0 ('No Talking') сборка от Jul 28 2010 18:38:23 2016-10-11 16:23:46
FromStats_BitRate : 192000
FromStats_Duration : 01:37:11.776000000
FromStats_FrameCount : 182243
FromStats_StreamSize : 139962624
Audio #2
ID : 3
Format : AC-3
Format/Info : Audio Coding 3
Mode extension : CM (complete main)
Format settings, Endianness : Big
Muxing mode : Header stripping
Codec ID : A_AC3
Duration : 1 h 38 min
Bit rate mode : Constant
Bit rate : 160 kb/s
Channel(s) : 2 channels
Channel positions : Front: L R
Sampling rate : 48.0 kHz
Frame rate : 31.250 FPS (1536 spf)
Compression mode : Lossy
Delay relative to video : 28 ms
Stream size : 113 MiB (2%)
Title : Авторский (Юрий Живов)
Language : Russian
Default : No
Forced : No
Statistics Tags Issue : mkvmerge v8.5.2 ('Crosses') 32bit 2016-10-11 16:15:24 / mkvmerge v4.2.0 ('No Talking') сборка от Jul 28 2010 18:38:23 2016-10-11 16:23:46
FromStats_BitRate : 160000
FromStats_Duration : 01:38:38.976000000
FromStats_FrameCount : 184968
FromStats_StreamSize : 118379520
Menu
00:00:00.000 : en:00:00:00.000
00:05:00.000 : en:00:05:00.000
00:10:00.000 : en:00:10:00.000
00:15:00.000 : en:00:15:00.000
00:20:00.000 : en:00:20:00.000
00:25:00.000 : en:00:25:00.000
00:30:00.000 : en:00:30:00.000
00:35:00.000 : en:00:35:00.000
00:40:00.000 : en:00:40:00.000
00:45:00.000 : en:00:45:00.000
00:50:00.000 : en:00:50:00.000
00:55:00.000 : en:00:55:00.000
01:00:00.000 : en:01:00:00.000
01:05:00.000 : en:01:05:00.000
01:10:00.000 : en:01:10:00.000
01:15:00.000 : en:01:15:00.000
01:20:00.000 : en:01:20:00.000
01:25:00.000 : en:01:25:00.000
01:30:00.000 : en:01:30:00.000
01:35:00.000 : en:01:35:00.000

Скриншоты

[Профиль] [ЛС]
Показать сообщения:    

Текущее время: Сегодня 07:06

Часовой пояс: GMT



Вы не можете начинать темы
Вы не можете отвечать на сообщения
Вы не можете редактировать свои сообщения
Вы не можете удалять свои сообщения
Вы не можете голосовать в опросах
Вы не можете прикреплять файлы к сообщениям
Вы не можете скачивать файлы