Сердце вдребезги / Playing It Cool (2014) BDRip 720p | iTunes

 
Автор Сообщение

достали все ®

Пол:

Стаж: 1 год 8 месяцев

Сообщений: 6545



Награды: 12 (Подробнее)

Mega Seeder 4 (Количество: 1) Top Releaser 3 (Количество: 1) Mega Seeder 2 (Количество: 1)
Торрент-статистика

Создавать темы 05-Янв-2016 11:36

[Цитировать]

Информация о фильме
Название: Сердце вдребезги
Оригинальное название: Playing It Cool
Страна: США
Студия: Voltage Pictures, Wonderland Sound and Vision
Жанр: мелодрама, комедия
Год выпуска: 2014
Продолжительность: 01:34:31
Перевод: Профессиональный (многоголосый закадровый) iTunes
Cубтитры: английские
Оригинальная аудиодорожка: английский
Режиссер: Джастин Рирдон / Justin Reardon
В ролях: Крис Эванс, Мишель Монахэн, Тофер Грейс, Обри Плаза, Люк Уилсон, Мартин Старр, Энтони Маки, Йоан Гриффит, Филип Бейкер Холл, Патрик Варбертон
Описание: Он, беспечный циник и гедонист, влюбляется в нее с первого взгляда. Но Она уже обручена и вскоре планирует выйти замуж. Чтобы удержать свою любимую, ему потребуется все его неистощимое воображение, а также помощь друзей, советы деда — знатока женской психологии, умение постоять за себя в кулачном бою и, главное, — слышать голос собственного сердца.

Тип релиза: BDRip 720p
Контейнер: MKV
Видео: MPEG-4 AVC, 6380 Кбит/с, 1280x534, 24.000 fps
Аудио: Rus, AC3, 384 kb/s (6 ch), 48 kHz
Аудио 2: Eng, AC3, 640 kb/s (6 ch), 48 kHz
Формат субтитров: softsub (SRT)

MediaInfo

x264 [info]: frame I:1306 Avg QP:14.31 size:115751
x264 [info]: frame P:27153 Avg QP:15.48 size: 48851
x264 [info]: frame B:107647 Avg QP:16.91 size: 29266
Format : Matroska
Format version : Version 4 / Version 2
File size : 4.99 GiB
Duration : 1h 34mn
Overall bit rate : 7 555 Kbps
Movie name : Сердце вдребезги. (Tonik)
Encoded date : UTC 2016-01-05 05:44:47
Writing application : mkvmerge v7.1.0 ('Good Love') 64bit built on Jul 27 2014 13:06:55
Writing library : libebml v1.3.0 + libmatroska v1.4.1
_STATISTICS_WRITING_APP : mkvmerge v7.1.0 ('Good Love') 64bit built on Jul 27 2014 13:06:55
_STATISTICS_WRITING_DATE_UTC : 2016-01-05 05:44:47
_STATISTICS_TAGS : BPS DURATION NUMBER_OF_FRAMES NUMBER_OF_BYTES
DURATION : 01:30:55.165000000
NUMBER_OF_FRAMES : 1379
NUMBER_OF_BYTES : 62454
Video
ID : 1
Format : AVC
Format/Info : Advanced Video Codec
Format profile : High@L4.1
Format settings, CABAC : Yes
Format settings, ReFrames : 12 frames
Codec ID : V_MPEG4/ISO/AVC
Duration : 1h 34mn
Bit rate : 6 380 Kbps
Width : 1 280 pixels
Height : 534 pixels
Display aspect ratio : 2.40:1
Frame rate mode : Constant
Frame rate : 24.000 fps
Color space : YUV
Chroma subsampling : 4:2:0
Bit depth : 8 bits
Scan type : Progressive
Bits/(Pixel*Frame) : 0.389
Stream size : 4.21 GiB (84%)
Writing library : x264 core 146 r2538kMod 121396c
Encoding settings : cabac=1 / ref=12 / deblock=1:-3:-3 / analyse=0x3:0x133 / me=umh / subme=10 / psy=1 / fade_compensate=0.00 / psy_rd=1.08:0.00 / mixed_ref=1 / me_range=24 / chroma_me=1 / trellis=2 / 8x8dct=1 / cqm=0 / deadzone=21,11 / fast_pskip=1 / chroma_qp_offset=-2 / threads=24 / lookahead_threads=4 / sliced_threads=0 / nr=0 / decimate=1 / interlaced=0 / bluray_compat=0 / constrained_intra=0 / fgo=0 / bframes=11 / b_pyramid=2 / b_adapt=2 / b_bias=0 / direct=3 / weightb=1 / open_gop=0 / weightp=2 / keyint=250 / keyint_min=24 / scenecut=40 / intra_refresh=0 / rc=crf / mbtree=0 / crf=16.3000 / qcomp=0.65 / qpmin=0 / qpmax=69 / qpstep=4 / ip_ratio=1.30 / pb_ratio=1.20 / aq=3:0.68
Language : English
Default : Yes
Forced : No
Color range : Limited
Matrix coefficients : BT.709
_STATISTICS_WRITING_APP : mkvmerge v7.1.0 ('Good Love') 64bit built on Jul 27 2014 13:06:55
_STATISTICS_WRITING_DATE_UTC : 2016-01-05 05:44:47
_STATISTICS_TAGS : BPS DURATION NUMBER_OF_FRAMES NUMBER_OF_BYTES
DURATION : 01:34:31.084000000
NUMBER_OF_FRAMES : 136106
NUMBER_OF_BYTES : 4627966970
Audio #1
ID : 2
Format : AC-3
Format/Info : Audio Coding 3
Mode extension : CM (complete main)
Format settings, Endianness : Big
Codec ID : A_AC3
Duration : 1h 34mn
Bit rate mode : Constant
Bit rate : 384 Kbps
Channel(s) : 6 channels
Channel positions : Front: L C R, Side: L R, LFE
Sampling rate : 48.0 KHz
Bit depth : 16 bits
Compression mode : Lossy
Stream size : 260 MiB (5%)
Title : iTunes
Language : Russian
Default : Yes
Forced : No
Audio #2
ID : 3
Format : AC-3
Format/Info : Audio Coding 3
Mode extension : CM (complete main)
Format settings, Endianness : Big
Codec ID : A_AC3
Duration : 1h 34mn
Bit rate mode : Constant
Bit rate : 640 Kbps
Channel(s) : 6 channels
Channel positions : Front: L C R, Side: L R, LFE
Sampling rate : 48.0 KHz
Bit depth : 16 bits
Compression mode : Lossy
Stream size : 433 MiB (8%)
Language : English
Default : No
Forced : No
Text
ID : 4
Format : UTF-8
Codec ID : S_TEXT/UTF8
Codec ID/Info : UTF-8 Plain Text
Language : English
Default : No
Forced : No
Menu
00:00:00.000 : en:00:00:00.000
00:10:45.750 : en:00:10:45.750
00:25:00.417 : en:00:25:00.417
00:37:20.583 : en:00:37:20.583
00:49:58.750 : en:00:49:58.750
00:59:56.042 : en:00:59:56.042
01:13:16.125 : en:01:13:16.125
01:28:10.667 : en:01:28:10.667

Скриншоты

[Профиль] [ЛС]
Показать сообщения:    

Текущее время: Сегодня 20:43

Часовой пояс: GMT



Вы не можете начинать темы
Вы не можете отвечать на сообщения
Вы не можете редактировать свои сообщения
Вы не можете удалять свои сообщения
Вы не можете голосовать в опросах
Вы не можете прикреплять файлы к сообщениям
Вы не можете скачивать файлы