Сердце ангела / Angel Heart (1987) BDRip 1080p | D, P, P2, A

 
Автор Сообщение

Russian Mafia ®

Пол:

Стаж: 1 год 8 месяцев

Сообщений: 4252



Награды: 10 (Подробнее)

Top Releaser 5 (Количество: 1) Mega Seeder 1 (Количество: 1) Top Releaser 3 (Количество: 1)
Торрент-статистика

Создавать темы 10-Апр-2016 14:30

[Цитировать]

Информация о фильме
Название: Сердце ангела
Оригинальное название: Angel Heart
Год выпуска: 1987
Страна: США, Канада, Великобритания
Жанр: Ужасы, триллер, детектив
Продолжительность: 01:53:11
Перевод: Профессиональный (полное дублирование), Киностудия им. Горького
Перевод: Профессиональный (многоголосый закадровый), R5 / Амальгама
Перевод: Профессиональный (двухголосый закадровый), П. Гланц и И. Королёва
Перевод: Профессиональный (многоголосый закадровый), Киномания
Перевод: Профессиональный (многоголосый закадровый), ОРТ-Селена Интернешнл
Перевод: Профессиональный (многоголосый закадровый), РТР-студия "Нота"
Перевод: Авторский (одноголосый закадровый), Ю. Сербин
Перевод: Авторский (одноголосый закадровый), А. Михалёв
Перевод: Авторский (одноголосый закадровый), Ю. Живов
Перевод: Авторский (одноголосый закадровый), Г. Либергал
Перевод: Авторский (одноголосый закадровый), В.Завгородний
Перевод: Авторский (одноголосый закадровый), Doctor Joker
Субтитры: Русские, английские
Режиссер: Алан Паркер
В ролях: Микки Рурк, Роберт Де Ниро, Лиза Бонет, Шарлотта Рэмплинг, Стокер Фонтелье, Брауни МакГи, Майкл Хиггинс, Элизабет Уиткрафт, Элиотт Кинер, Чарльз Гордон и др.
Описание: Фильм снят по мотивам романа Уильяма Хьортсберга «Падший ангел».
1955 год, Нью-Йорк, к частному детективу Гарри Эйнджелу обращается некий Луис Сайфер с просьбой разыскать талантливого музыканта Джонни Фэйворита. В 1943 году мистер Сайфер заключил с Джонни один контракт, но Фэйворит, вернувшись с войны, попал в психиатрическую лечебницу, откуда впоследствии исчез… Следы его потерялись… Гарри начинает расследование, однако, чем дальше продвигается он в своих поисках, тем больше загадок встречается на его пути. А обратной дороги нет: каждый, у кого сыщик пытался выведать хоть какие-то сведения о пропавшем Джонни, после разговора с Эйнджелом погибал…

Файл
Качество: BDRip 1080p
Видео: MPEG4 Video (H264), 1920x1040, 23.976fps, 11.0 Mbps
Аудио #01: Русский: Dolby AC3, 48000 Hz, 6ch, 448 kbps - Дубляж, Киностудия им. Горького
Аудио #02: Русский: Dolby AC3, 48000 Hz, 6ch, 448 kbps - Многоголосый, R5, Амальгама
Аудио #03: Русский: Dolby AC3, 48000 Hz, 6ch, 448 kbps - Двухголосый, П. Гланц и И. Королёва
Аудио #04: Русский: Dolby AC3, 48000 Hz, 6ch, 384 kbps - Многоголосый, Киномания
Аудио #05: Русский: Dolby AC3, 48000 Hz, 2ch, 192 kbps - Многоголосый, ОРТ-Селена Интернешнл
Аудио #06: Русский: Dolby AC3, 48000 Hz, 2ch, 192 kbps - Многоголосый, РТР-студия "Нота"
Аудио #07: Русский: Dolby AC3, 48000 Hz, 6ch, 448 kbps - Одноголосый, Ю. Сербин
Аудио #08: Русский: Dolby AC3, 48000 Hz, 6ch, 448 kbps - Одноголосый, А. Михалёв
Аудио #09: Русский: Dolby AC3, 48000 Hz, 6ch, 448 kbps - Одноголосый, Ю. Живов
Аудио #10: Русский: Dolby AC3, 48000 Hz, 6ch, 448 kbps - Одноголосый, Г. Либергал
Аудио #11: Русский: Dolby AC3, 48000 Hz, 6ch, 448 kbps - Одноголосый, В.Завгородний
Аудио #12: Русский: Dolby AC3, 48000 Hz, 6ch, 448 kbps - Одноголосый, Doctor Joker
Аудио #13: Украинский: Dolby AC3, 48000 Hz, 6ch, 448 kbps - Многоголосый, 2+2 / Кіно
Аудио #14: Английский: Dolby AC3, 48000 Hz, 6ch, 448 kbps
Формат субтитров: Softsub (SRT)
Сэмпл

MediaInfo:

General
Unique ID : 254461762614598627181092854473331167248 (0xBF6F8D866792CF3AA28ADE9B6C49D010)
Complete name : F:Torrent 21987.Angel.Heart.renta23.mkv
Format : Matroska
Format version : Version 4 / Version 2
File size : 13.2 GiB
Duration : 1h 53mn
Overall bit rate : 16.7 Mbps
Movie name : 1987 Сердце ангела / renta23
Encoded date : UTC 2016-04-09 19:21:47
Writing application : mkvmerge v8.3.0 ('Over the Horizon') 64bit
Writing library : libebml v1.3.1 + libmatroska v1.4.2
Video
ID : 1
Format : AVC
Format/Info : Advanced Video Codec
Format profile : High@L4.1
Format settings, CABAC : Yes
Format settings, ReFrames : 4 frames
Codec ID : V_MPEG4/ISO/AVC
Duration : 1h 53mn
Bit rate : 11.0 Mbps
Width : 1 920 pixels
Height : 1 040 pixels
Display aspect ratio : 1.85:1
Frame rate mode : Constant
Frame rate : 23.976 (24000/1001) fps
Color space : YUV
Chroma subsampling : 4:2:0
Bit depth : 8 bits
Scan type : Progressive
Bits/(Pixel*Frame) : 0.230
Stream size : 8.69 GiB (66%)
Title : 1987 Сердце ангела
Writing library : x264 core 146 r2538 121396c
Encoding settings : cabac=1 / ref=4 / deblock=1:-1:-1 / analyse=0x3:0x133 / me=umh / subme=11 / psy=1 / psy_rd=1.07:0.23 / mixed_ref=1 / me_range=32 / chroma_me=1 / trellis=2 / 8x8dct=1 / cqm=0 / deadzone=21,11 / fast_pskip=0 / chroma_qp_offset=-3 / threads=12 / lookahead_threads=3 / sliced_threads=0 / nr=0 / decimate=1 / interlaced=0 / bluray_compat=0 / constrained_intra=0 / bframes=14 / b_pyramid=2 / b_adapt=2 / b_bias=0 / direct=3 / weightb=1 / open_gop=0 / weightp=2 / keyint=250 / keyint_min=23 / scenecut=40 / intra_refresh=0 / rc=2pass / mbtree=0 / bitrate=11000 / ratetol=1.0 / qcomp=0.60 / qpmin=0 / qpmax=69 / qpstep=4 / cplxblur=20.0 / qblur=0.5 / ip_ratio=1.40 / pb_ratio=1.30 / aq=2:1.00
Language : English
Default : Yes
Forced : No
Audio #1
ID : 2
Format : AC-3
Format/Info : Audio Coding 3
Mode extension : CM (complete main)
Format settings, Endianness : Big
Codec ID : A_AC3
Duration : 1h 53mn
Bit rate mode : Constant
Bit rate : 448 Kbps
Channel(s) : 6 channels
Channel positions : Front: L C R, Side: L R, LFE
Sampling rate : 48.0 KHz
Frame rate : 31.250 fps (1536 spf)
Compression mode : Lossy
Stream size : 363 MiB (3%)
Title : Дубляж 6ch, Киностудия им. Горького
Language : Russian
Default : Yes
Forced : No
Audio #2
ID : 3
Format : AC-3
Format/Info : Audio Coding 3
Mode extension : CM (complete main)
Format settings, Endianness : Big
Codec ID : A_AC3
Duration : 1h 53mn
Bit rate mode : Constant
Bit rate : 448 Kbps
Channel(s) : 6 channels
Channel positions : Front: L C R, Side: L R, LFE
Sampling rate : 48.0 KHz
Frame rate : 31.250 fps (1536 spf)
Compression mode : Lossy
Stream size : 363 MiB (3%)
Title : Многоголосый, R5, Амальгама
Language : Russian
Default : No
Forced : No
Audio #3
ID : 4
Format : AC-3
Format/Info : Audio Coding 3
Mode extension : CM (complete main)
Format settings, Endianness : Big
Codec ID : A_AC3
Duration : 1h 53mn
Bit rate mode : Constant
Bit rate : 448 Kbps
Channel(s) : 6 channels
Channel positions : Front: L C R, Side: L R, LFE
Sampling rate : 48.0 KHz
Frame rate : 31.250 fps (1536 spf)
Compression mode : Lossy
Stream size : 363 MiB (3%)
Title : Двухголосый, П. Гланц и И. Королёва
Language : Russian
Default : No
Forced : No
Audio #4
ID : 5
Format : AC-3
Format/Info : Audio Coding 3
Mode extension : CM (complete main)
Format settings, Endianness : Big
Codec ID : A_AC3
Duration : 1h 53mn
Bit rate mode : Constant
Bit rate : 384 Kbps
Channel(s) : 6 channels
Channel positions : Front: L C R, Side: L R, LFE
Sampling rate : 48.0 KHz
Frame rate : 31.250 fps (1536 spf)
Compression mode : Lossy
Stream size : 311 MiB (2%)
Title : Многоголосый, Киномания
Language : Russian
Default : No
Forced : No
Audio #5
ID : 6
Format : AC-3
Format/Info : Audio Coding 3
Mode extension : CM (complete main)
Format settings, Endianness : Big
Codec ID : A_AC3
Duration : 1h 53mn
Bit rate mode : Constant
Bit rate : 192 Kbps
Channel(s) : 2 channels
Channel positions : Front: L R
Sampling rate : 48.0 KHz
Frame rate : 31.250 fps (1536 spf)
Compression mode : Lossy
Stream size : 155 MiB (1%)
Title : Многоголосый, ОРТ-Селена Интернешнл
Language : Russian
Default : No
Forced : No
Audio #6
ID : 7
Format : AC-3
Format/Info : Audio Coding 3
Mode extension : CM (complete main)
Format settings, Endianness : Big
Codec ID : A_AC3
Duration : 1h 53mn
Bit rate mode : Constant
Bit rate : 192 Kbps
Channel(s) : 2 channels
Channel positions : Front: L R
Sampling rate : 48.0 KHz
Frame rate : 31.250 fps (1536 spf)
Compression mode : Lossy
Stream size : 155 MiB (1%)
Title : Многоголосый, РТР-студия "Нота"
Language : Russian
Default : No
Forced : No
Audio #7
ID : 8
Format : AC-3
Format/Info : Audio Coding 3
Mode extension : CM (complete main)
Format settings, Endianness : Big
Codec ID : A_AC3
Duration : 1h 53mn
Bit rate mode : Constant
Bit rate : 448 Kbps
Channel(s) : 6 channels
Channel positions : Front: L C R, Side: L R, LFE
Sampling rate : 48.0 KHz
Frame rate : 31.250 fps (1536 spf)
Compression mode : Lossy
Stream size : 363 MiB (3%)
Title : Одноголосый, Ю. Сербин
Language : Russian
Default : No
Forced : No
Audio #8
ID : 9
Format : AC-3
Format/Info : Audio Coding 3
Mode extension : CM (complete main)
Format settings, Endianness : Big
Codec ID : A_AC3
Duration : 1h 53mn
Bit rate mode : Constant
Bit rate : 448 Kbps
Channel(s) : 6 channels
Channel positions : Front: L C R, Side: L R, LFE
Sampling rate : 48.0 KHz
Frame rate : 31.250 fps (1536 spf)
Compression mode : Lossy
Stream size : 363 MiB (3%)
Title : Одноголосый, А. Михалёв
Language : Russian
Default : No
Forced : No
Audio #9
ID : 10
Format : AC-3
Format/Info : Audio Coding 3
Mode extension : CM (complete main)
Format settings, Endianness : Big
Codec ID : A_AC3
Duration : 1h 53mn
Bit rate mode : Constant
Bit rate : 448 Kbps
Channel(s) : 6 channels
Channel positions : Front: L C R, Side: L R, LFE
Sampling rate : 48.0 KHz
Frame rate : 31.250 fps (1536 spf)
Compression mode : Lossy
Stream size : 363 MiB (3%)
Title : Одноголосый, Ю. Живов
Language : Russian
Default : No
Forced : No
Audio #10
ID : 11
Format : AC-3
Format/Info : Audio Coding 3
Mode extension : CM (complete main)
Format settings, Endianness : Big
Codec ID : A_AC3
Duration : 1h 53mn
Bit rate mode : Constant
Bit rate : 448 Kbps
Channel(s) : 6 channels
Channel positions : Front: L C R, Side: L R, LFE
Sampling rate : 48.0 KHz
Frame rate : 31.250 fps (1536 spf)
Compression mode : Lossy
Stream size : 363 MiB (3%)
Title : Одноголосый, Г. Либергал
Language : Russian
Default : No
Forced : No
Audio #11
ID : 12
Format : AC-3
Format/Info : Audio Coding 3
Mode extension : CM (complete main)
Format settings, Endianness : Big
Codec ID : A_AC3
Duration : 1h 53mn
Bit rate mode : Constant
Bit rate : 448 Kbps
Channel(s) : 6 channels
Channel positions : Front: L C R, Side: L R, LFE
Sampling rate : 48.0 KHz
Frame rate : 31.250 fps (1536 spf)
Compression mode : Lossy
Stream size : 363 MiB (3%)
Title : Одноголосый, В.Завгородний
Language : Russian
Default : No
Forced : No
Audio #12
ID : 13
Format : AC-3
Format/Info : Audio Coding 3
Mode extension : CM (complete main)
Format settings, Endianness : Big
Codec ID : A_AC3
Duration : 1h 53mn
Bit rate mode : Constant
Bit rate : 448 Kbps
Channel(s) : 6 channels
Channel positions : Front: L C R, Side: L R, LFE
Sampling rate : 48.0 KHz
Frame rate : 31.250 fps (1536 spf)
Compression mode : Lossy
Stream size : 363 MiB (3%)
Title : Одноголосый, Doctor Joker
Language : Russian
Default : No
Forced : No
Audio #13
ID : 14
Format : AC-3
Format/Info : Audio Coding 3
Mode extension : CM (complete main)
Format settings, Endianness : Big
Codec ID : A_AC3
Duration : 1h 53mn
Bit rate mode : Constant
Bit rate : 448 Kbps
Channel(s) : 6 channels
Channel positions : Front: L C R, Side: L R, LFE
Sampling rate : 48.0 KHz
Frame rate : 31.250 fps (1536 spf)
Compression mode : Lossy
Stream size : 363 MiB (3%)
Title : Многоголосый, 2+2 / Кіно
Language : Ukrainian
Default : No
Forced : No
Audio #14
ID : 15
Format : AC-3
Format/Info : Audio Coding 3
Mode extension : CM (complete main)
Format settings, Endianness : Big
Codec ID : A_AC3
Duration : 1h 53mn
Bit rate mode : Constant
Bit rate : 448 Kbps
Channel(s) : 6 channels
Channel positions : Front: L C R, Side: L R, LFE
Sampling rate : 48.0 KHz
Frame rate : 31.250 fps (1536 spf)
Compression mode : Lossy
Stream size : 363 MiB (3%)
Language : English
Default : No
Forced : No
Text #1
ID : 16
Format : UTF-8
Codec ID : S_TEXT/UTF8
Codec ID/Info : UTF-8 Plain Text
Duration : 1h 49mn
Bit rate : 71 bps
Count of elements : 839
Stream size : 57.2 KiB (0%)
Language : Russian
Default : No
Forced : No
Text #2
ID : 17
Format : UTF-8
Codec ID : S_TEXT/UTF8
Codec ID/Info : UTF-8 Plain Text
Duration : 1h 46mn
Bit rate : 42 bps
Count of elements : 817
Stream size : 33.1 KiB (0%)
Language : English
Default : No
Forced : No
Menu
00:00:00.000 : en:Chapter 01
00:11:01.661 : en:Chapter 02
00:24:50.238 : en:Chapter 03
00:32:29.364 : en:Chapter 04
00:40:31.053 : en:Chapter 05
00:48:16.894 : en:Chapter 06
00:55:13.184 : en:Chapter 07
01:05:33.137 : en:Chapter 08
01:17:57.881 : en:Chapter 09
01:30:07.318 : en:Chapter 10
01:41:12.024 : en:Chapter 11
01:49:16.841 : en:Chapter 12

[Профиль] [ЛС]
Показать сообщения:    

Текущее время: Сегодня 22:40

Часовой пояс: GMT



Вы не можете начинать темы
Вы не можете отвечать на сообщения
Вы не можете редактировать свои сообщения
Вы не можете удалять свои сообщения
Вы не можете голосовать в опросах
Вы не можете прикреплять файлы к сообщениям
Вы не можете скачивать файлы