Сердцеедки / Heartbreakers (2001) BDRip 1080p | Лицензия

 
Автор Сообщение

BOSS ®

Пол:

Стаж: 2 года 1 месяц

Сообщений: 3735

Откуда: ODESSA



Награды: 20 (Подробнее)

Top Keeper 3 (Количество: 1) Mega Seeder 4 (Количество: 1) Mega Seeder 5 (Количество: 1)
Торрент-статистика

Создавать темы 20-Янв-2016 16:28

[Цитировать]

Информация о фильме
Название: Сердцеедки
Оригинальное название: Heartbreakers
Год выхода: 2001
Жанр: мелодрама, комедия, криминал
Режиссер: Дэвид Миркин
В ролях: Сигурни Уивер, Дженнифер Лав Хьюитт, Джин Хэкмен, Рэй Лиотта, Джейсон Ли, Энн Бэнкрофт, Джеффри Джонс, Нора Данн, Хулио Оскар Мечосо, Рикки Джей
О фильме: Очаровательная интриганка Макс Коннерс и ее прилежная ученица (она же - дочь) Пейдж – отличная команда. Некоторые матери учат своих дочерей музыке, танцам и этикету, а Макс передала Пейдж все, что узнала сама за многие годы об авантюрах, мошенничестве и обольщении. Отсутствие капитала, по их мнению, - лишь временное явление, легко поправимое при помощи мужчин.
Ничего не подозревающие, хорошо обеспеченные жертвы быстро попадаются в коварные сети прекрасных обманщиц. Результат – легкая и беззаботная жизнь на деньги очередного одураченного простофили, лишившегося значительной части своих средств.
И все было бы хорошо, но однажды Пейдж совершила роковую ошибку влюбившись на самом деле. Ведь женское сердце не спрашивая свою хозяйку, всегда ищет настоящую любовь. Много лет назад такую же ошибку совершила и Макс.

Выпущено: Metro-Goldwyn-Mayer
Продолжительность: 02:03:29
Перевод: Дублированный (лицензия)
Файл
Кодек: x264
Качество: BDRip (источник: Blu-ray Disc)
Видео: 1920x824 (2,35:1), 23.976 fps, 7910 kbps
Аудио #1: AC-3, 6 ch, 448 kbps (Rus)
Аудио #2: AC-3, 6 ch, 640 kbps (Eng)
Субтитры: Русские, Английские
Скачать: сэмпл
Скриншоты

MI

General
Unique ID : 241800482091395214483042425384735491477 (0xB5E91432F7C9B11CABEFAAB0F10A4595)
Complete name : Z:Heartbreakers.2001.BDRip.1080p.Rus.Eng.mkv
Format : Matroska
Format version : Version 2
File size : 7.76 GiB
Duration : 2h 3mn
Overall bit rate : 8 995 Kbps
Movie name : Сердцеедки / Heartbreakers (2001)
Encoded date : UTC 2016-01-05 19:52:40
Writing application : mkvmerge v5.8.0 ('No Sleep / Pillow') built on Sep 2 2012 15:37:04
Writing library : libebml v1.2.3 + libmatroska v1.3.0
Video
ID : 1
Format : AVC
Format/Info : Advanced Video Codec
Format profile : High@L4.1
Format settings, CABAC : Yes
Format settings, ReFrames : 5 frames
Codec ID : V_MPEG4/ISO/AVC
Duration : 2h 3mn
Bit rate : 7 910 Kbps
Width : 1 920 pixels
Height : 824 pixels
Display aspect ratio : 2.35:1
Frame rate mode : Constant
Frame rate : 23.976 fps
Color space : YUV
Chroma subsampling : 4:2:0
Bit depth : 8 bits
Scan type : Progressive
Bits/(Pixel*Frame) : 0.209
Stream size : 6.67 GiB (86%)
Title : Сердцеедки / Heartbreakers (2001)
Writing library : x264 core 148 r2638 7599210
Encoding settings : cabac=1 / ref=5 / deblock=1:-3:-3 / analyse=0x3:0x133 / me=umh / subme=11 / psy=1 / psy_rd=1.00:0.00 / mixed_ref=1 / me_range=32 / chroma_me=1 / trellis=2 / 8x8dct=1 / cqm=0 / deadzone=21,11 / fast_pskip=0 / chroma_qp_offset=-2 / threads=12 / lookahead_threads=3 / sliced_threads=0 / nr=0 / decimate=0 / interlaced=0 / bluray_compat=0 / constrained_intra=0 / bframes=10 / b_pyramid=2 / b_adapt=2 / b_bias=0 / direct=3 / weightb=1 / open_gop=0 / weightp=2 / keyint=240 / keyint_min=23 / scenecut=40 / intra_refresh=0 / rc=2pass / mbtree=0 / bitrate=7910 / ratetol=1.0 / qcomp=0.60 / qpmin=0 / qpmax=69 / qpstep=4 / cplxblur=20.0 / qblur=0.5 / ip_ratio=1.40 / pb_ratio=1.30 / aq=1:0.70
Language : English
Default : Yes
Forced : No
Audio #1
ID : 2
Format : AC-3
Format/Info : Audio Coding 3
Mode extension : CM (complete main)
Format settings, Endianness : Big
Codec ID : A_AC3
Duration : 2h 3mn
Bit rate mode : Constant
Bit rate : 448 Kbps
Channel(s) : 6 channels
Channel positions : Front: L C R, Side: L R, LFE
Sampling rate : 48.0 KHz
Bit depth : 16 bits
Compression mode : Lossy
Stream size : 396 MiB (5%)
Title : Дубляж, R5
Language : Russian
Default : Yes
Forced : No
Audio #2
ID : 3
Format : AC-3
Format/Info : Audio Coding 3
Mode extension : CM (complete main)
Format settings, Endianness : Big
Codec ID : A_AC3
Duration : 2h 3mn
Bit rate mode : Constant
Bit rate : 640 Kbps
Channel(s) : 6 channels
Channel positions : Front: L C R, Side: L R, LFE
Sampling rate : 48.0 KHz
Bit depth : 16 bits
Compression mode : Lossy
Stream size : 565 MiB (7%)
Title : English
Language : English
Default : No
Forced : No
Text #1
ID : 4
Format : UTF-8
Codec ID : S_TEXT/UTF8
Codec ID/Info : UTF-8 Plain Text
Title : Russian
Language : Russian
Default : No
Forced : No
Text #2
ID : 5
Format : UTF-8
Codec ID : S_TEXT/UTF8
Codec ID/Info : UTF-8 Plain Text
Title : English
Language : English
Default : No
Forced : No
Menu
00:00:00.000 : :Chapter 01
00:00:10.926 : :Chapter 02
00:15:09.825 : :Chapter 03
00:26:07.481 : :Chapter 04
00:41:25.398 : :Chapter 05
00:55:49.471 : :Chapter 06
01:12:48.905 : :Chapter 07
01:29:46.506 : :Chapter 08
01:51:06.784 : :Chapter 09

x264

x264 [info]: frame I:1143 Avg QP:18.03 size:161411
x264 [info]: frame P:32825 Avg QP:19.69 size: 74781
x264 [info]: frame B:143681 Avg QP:21.90 size: 31885
x264 [info]: consecutive B-frames: 0.9% 0.6% 4.4% 7.4% 14.0% 63.6% 5.7% 1.1% 0.8% 1.1% 0.4%
x264 [info]: frame I:1143 Avg QP:16.98 size:180839
x264 [info]: frame P:32825 Avg QP:19.69 size: 75765
x264 [info]: frame B:143681 Avg QP:21.88 size: 32214
x264 [info]: consecutive B-frames: 0.9% 0.6% 4.4% 7.4% 14.0% 63.6% 5.7% 1.1% 0.8% 1.1% 0.4%
[Профиль] [ЛС]
Показать сообщения:    

Текущее время: Сегодня 08:56

Часовой пояс: GMT



Вы не можете начинать темы
Вы не можете отвечать на сообщения
Вы не можете редактировать свои сообщения
Вы не можете удалять свои сообщения
Вы не можете голосовать в опросах
Вы не можете прикреплять файлы к сообщениям
Вы не можете скачивать файлы