Сердца тьмы: Апокалипсис кинематографиста / Hearts of Darkness: A Filmmaker\'s Apocalypse (Факс Бар, Джордж Хикенлупер, Элинор Коппола / Fax Bahr, George Hickenlooper, Eleanor Coppola) [1991, документальный, BDRip 720p] Original (Eng) + Sub (Rus, Eng

 
Автор Сообщение

TorrentFilm ®

Пол:

Стаж: 2 года

Сообщений: 7741



Награды: Нет

Торрент-статистика

Создавать темы 21-Янв-2015 00:01

[Цитировать]

Сердца тьмы: Апокалипсис кинематографиста / Hearts of Darkness: A Filmmaker's Apocalypse
Год выпуска: 1991
Страна: США
Жанр: документальный
Продолжительность: 01:33:31
Перевод: субтитры
Cубтитры: русские, английские
Оригинальная аудиодорожка: английский
Оглавление: 31 глава
Режиссер: Факс Бар /Fax Bahr/, Джордж Хикенлупер /George Hickenlooper/, Элинор Коппола /Eleanor Coppola/
Описание:
Документальный фильм о съёмках шедевра Фрэнсиса Форда Копполы «Апокалипсис сегодня», о мучительном создании сценария, съёмке, подборе актёров, бюджета... Всё это чуть не разрушило жизнь и карьеру прославленного режиссера.
Дополнительная информация:
IMDB User Rating→: 8.2/10 (11,663 votes)
Рейтинг фильма КиноПоиск.Ru→: 8.032 (294 голосов)
  • В русских субтитрах присутствует ненормативная лексика.
Качество: BDRip (исходник: Apocalypse Now (1979) Full Disclosure Edition BluRay 1080p AVC DTS-HD MA 5.1)
Контейнер: MKV
Видеопоток: 986x720p, 23.976 fps, x264 ~8580 kbps
Аудиопоток №1 (ENG): DD 2.0, 48 kHz, 224 kbps
Аудиопоток №2 (ENG): DD 2.0, 48 kHz, 224 kbps | комментарии Элинор и Фрэнсиса Форда Копполы
Субтитры №1 (RUS): SRT/UTF8 | Антон Тарасенко
Субтитры №2 (ENG): SRT/UTF8
Субтитры №3 (ENG): SRT/UTF8 | SDH
Сэмпл: Яндекс.Диск→, multi-up→

x264 Log

raw [info]: 986x720p 1:1 @ 24000/1001 fps (cfr)
x264 [info]: using SAR=1/1
x264 [info]: using cpu capabilities: MMX2 SSE2Fast SSSE3 SSE4.2 AVX
x264 [info]: profile High, level 4.1
x264 [info]: frame I:792   Avg QP:17.93  size: 84770
x264 [info]: frame P:23057 Avg QP:19.09  size: 55553
x264 [info]: frame B:114271 Avg QP:19.74  size: 43409
x264 [info]: consecutive B-frames:  0.9%  0.6%  2.1%  8.1% 10.5% 50.7%  5.2%  3.5%  2.4%  3.3%  2.9%  5.1%  1.1%  0.7%  0.7%  0.9%  1.3%
x264 [info]: mb I  I16..4:  7.0% 87.0%  5.9%
x264 [info]: mb P  I16..4:  0.4% 28.2%  0.9%  P16..4: 24.1% 23.4% 14.3%  0.3%  0.0%    skip: 8.5%
x264 [info]: mb B  I16..4:  0.0%  9.1%  0.2%  B16..8: 33.8% 20.9%  8.6%  direct:14.5%  skip:12.9%  L0:48.1% L1:35.3% BI:16.5%
x264 [info]: 8x8 transform intra:96.7% inter:71.8%
x264 [info]: direct mvs  spatial:99.8% temporal:0.2%
x264 [info]: coded y,uvDC,uvAC intra: 98.3% 93.8% 80.7% inter: 74.3% 60.0% 15.3%
x264 [info]: i16 v,h,dc,p: 69% 19%  8%  4%
x264 [info]: i8 v,h,dc,ddl,ddr,vr,hd,vl,hu:  8%  7%  8% 11% 15% 14% 12% 13% 12%
x264 [info]: i4 v,h,dc,ddl,ddr,vr,hd,vl,hu:  7%  7%  3% 10% 17% 17% 14% 13% 13%
x264 [info]: i8c dc,h,v,p: 54% 17% 14% 16%
x264 [info]: Weighted P-Frames: Y:19.6% UV:11.3%
x264 [info]: ref P L0: 33.1% 11.5% 17.2%  9.2%  7.3%  5.5%  4.9%  3.1%  2.9%  2.4%  2.4%  0.5%  0.0%
x264 [info]: ref B L0: 58.3% 14.7%  8.6%  5.1%  3.9%  3.3%  2.7%  1.9%  1.0%  0.4%
x264 [info]: ref B L1: 89.1% 10.9%
x264 [info]: kb/s:8760.53

MediaInfo

General
Unique ID                   : 192425083858120821698357757884563027128 (0x90C3B91D6EC819638ED1E261AEC174B8)
Complete name               : Hearts.of.Darkness.A.Filmmakers.Apocalypse.1991.720p.BDRip.x264.DD.SRT-d0ber.mkv
Format                      : Matroska
Format version              : Version 4 / Version 2
File size                   : 6.18 GiB
Duration                    : 1h 36mn
Overall bit rate            : 9 211 Kbps
Movie name                  : Hearts of Darkness: A Filmmaker's Apocalypse (1991) 720p BDRip by d0ber.maNN
Encoded date                : UTC 2015-01-20 08:24:29
Writing application         : mkvmerge v7.5.0 ('Glass Culture') 64bit built on Jan  4 2015 16:48:44
Writing library             : libebml v1.3.1 + libmatroska v1.4.2
DURATION                    : 01:33:30.915000000
NUMBER_OF_FRAMES            : 1465
NUMBER_OF_BYTES             : 105383
_STATISTICS_WRITING_APP     : mkvmerge v7.5.0 ('Glass Culture') 64bit built on Jan  4 2015 16:48:44
_STATISTICS_WRITING_DATE_UT : 2015-01-20 08:24:29
_STATISTICS_TAGS            : BPS DURATION NUMBER_OF_FRAMES NUMBER_OF_BYTES
Video
ID                          : 1
Format                      : AVC
Format/Info                 : Advanced Video Codec
Format profile              : High@L4.1
Format settings, CABAC      : Yes
Format settings, ReFrames   : 11 frames
Codec ID                    : V_MPEG4/ISO/AVC
Duration                    : 1h 36mn
Bit rate                    : 8 580 Kbps
Width                       : 986 pixels
Height                      : 720 pixels
Display aspect ratio        : 4:3
Frame rate mode             : Constant
Frame rate                  : 23.976 fps
Color space                 : YUV
Chroma subsampling          : 4:2:0
Bit depth                   : 8 bits
Scan type                   : Progressive
Bits/(Pixel*Frame)          : 0.504
Stream size                 : 5.75 GiB (93%)
Title                       : 986x720, 23.976 fps, x264 ~8588 kbps
Writing library             : x264 core 144 r2525 40bb568
Encoding settings           : cabac=1 / ref=11 / deblock=1:-3:-3 / analyse=0x3:0x133 / me=umh / subme=10 / psy=1 / psy_rd=1.00:0.00 / mixed_ref=1 / me_range=64 / chroma_me=1 / trellis=2 / 8x8dct=1 / cqm=0 / deadzone=21,11 / fast_pskip=0 / chroma_qp_offset=-2 / threads=6 / lookahead_threads=1 / sliced_threads=0 / nr=0 / decimate=0 / interlaced=0 / bluray_compat=0 / constrained_intra=0 / bframes=16 / b_pyramid=2 / b_adapt=2 / b_bias=0 / direct=3 / weightb=1 / open_gop=0 / weightp=2 / keyint=240 / keyint_min=23 / scenecut=40 / intra_refresh=0 / rc_lookahead=240 / rc=crf / mbtree=0 / crf=18.0 / qcomp=0.68 / qpmin=0 / qpmax=69 / qpstep=4 / vbv_maxrate=62500 / vbv_bufsize=78125 / crf_max=0.0 / nal_hrd=none / filler=0 / ip_ratio=1.20 / pb_ratio=1.10 / aq=1:0.70
Language                    : English
Default                     : Yes
Forced                      : No
Audio #1
ID                          : 2
Format                      : AC-3
Format/Info                 : Audio Coding 3
Mode extension              : CM (complete main)
Format settings, Endianness : Big
Codec ID                    : A_AC3
Duration                    : 1h 36mn
Bit rate mode               : Constant
Bit rate                    : 224 Kbps
Channel(s)                  : 2 channels
Channel positions           : Front: L R
Sampling rate               : 48.0 KHz
Bit depth                   : 16 bits
Compression mode            : Lossy
Stream size                 : 154 MiB (2%)
Title                       : ENG DD 2.0, 48 kHz, 224 kbps
Language                    : English
Default                     : Yes
Forced                      : No
Audio #2
ID                          : 3
Format                      : AC-3
Format/Info                 : Audio Coding 3
Format profile              : Dolby Digital
Mode extension              : CM (complete main)
Format settings, Endianness : Big
Codec ID                    : A_AC3
Duration                    : 1h 36mn
Bit rate mode               : Constant
Bit rate                    : 224 Kbps
Channel(s)                  : 2 channels
Channel positions           : Front: L R
Sampling rate               : 48.0 KHz
Bit depth                   : 16 bits
Compression mode            : Lossy
Stream size                 : 154 MiB (2%)
Title                       : ENG Commentary DD 2.0, 48 kHz, 224 kbps
Language                    : English
Default                     : No
Forced                      : No
Text #1
ID                          : 4
Format                      : UTF-8
Codec ID                    : S_TEXT/UTF8
Codec ID/Info               : UTF-8 Plain Text
Title                       : RUS А.Тарасенко SRT
Language                    : Russian
Default                     : Yes
Forced                      : No
Text #2
ID                          : 5
Format                      : UTF-8
Codec ID                    : S_TEXT/UTF8
Codec ID/Info               : UTF-8 Plain Text
Title                       : ENG SRT
Language                    : English
Default                     : No
Forced                      : No
Text #3
ID                          : 6
Format                      : UTF-8
Codec ID                    : S_TEXT/UTF8
Codec ID/Info               : UTF-8 Plain Text
Title                       : ENG SDH SRT
Language                    : English
Default                     : No
Forced                      : No
Menu
00:00:00.000                : en:
00:03:08.563                : en:
00:04:43.909                : en:
00:06:28.513                : en:
00:08:31.553                : en:
00:10:51.192                : en:
00:11:51.336                : en:
00:13:35.940                : en:
00:15:28.928                : en:
00:17:39.058                : en:
00:19:20.159                : en:
00:22:57.876                : en:
00:25:12.970                : en:
00:28:16.528                : en:
00:30:32.581                : en:
00:33:08.111                : en:
00:37:03.847                : en:
00:42:26.836                : en:
00:44:21.826                : en:
00:49:37.975                : en:
00:55:01.715                : en:
01:01:21.803                : en:
01:05:58.454                : en:
01:07:44.060                : en:
01:11:06.053                : en:
01:13:04.005                : en:
01:15:41.787                : en:
01:21:08.864                : en:
01:25:02.848                : en:
01:31:29.484                : en:
01:33:17.217                : en:

Скриншоты


Source vs. Rip


[Профиль] [ЛС]
Показать сообщения:    

Текущее время: Сегодня 18:43

Часовой пояс: GMT



Вы не можете начинать темы
Вы не можете отвечать на сообщения
Вы не можете редактировать свои сообщения
Вы не можете удалять свои сообщения
Вы не можете голосовать в опросах
Вы не можете прикреплять файлы к сообщениям
Вы не можете скачивать файлы