Сергей Юрский. "Я пришел в кино как клоун" (Татьяна Фрейденссон) [2015, Документальный, HDTV 1080i]

 
Автор Сообщение

TorrentFilm ®

Пол:

Стаж: 2 года

Сообщений: 7741



Награды: Нет

Торрент-статистика

Создавать темы 24-Мар-2015 00:01

[Цитировать]

Сергей Юрский. "Я пришел в кино как клоун"
Год выпуска: 2015
Страна: Россия
Студия: Красный квадрат
Жанр: Документальный
Продолжительность: 00:51:50
Перевод: Не требуется
Русские субтитры: нет
Режиссер: Татьяна Фрейденссон
Описание: 16 марта исполняется 80 лет артисту, режиссеру, драматургу Сергею Юрскому - "Остапу Бендеру" из "Золотого теленка", Викнисору из "Республики ШКИД", Дяде Мите из фильма "Любовь и голуби"... "Границы" - самое важное понятие в жизни Сергея Юрского. "Границы - они во мне. Они прошли через меня насквозь..."Так говорит. Так и живет. Границы. И в этом весь Юрский. Границы между лицедейством и подлинностью собственного я. Между актерством и режиссурой. Границы - занавесом - между сценой и зрительным залом. Между жизнью, в которую Юрский допускает журналистов и жизнью, которой живёт. Но главной границей, которую Сергей Юрьевич, по собственному признанию, так и не пересёк, он считает границу веков. "Я - человек ХХ века. Я там остался". И точка.
Доп. информация: Релиз -

Рип чистый. Без посторонних надписей. Выкладывается как есть.
Качество: HDTV 1080i
Контейнер: TS
Видео кодек: AVC
Аудио кодек: MP2, AC3
Видео: 1920x1080 (16:9) 25.000 fps ~ 10.1 Mbps, 0.195 bit/pixel
Аудио 1: MPEG Audio 48000Hz stereo 191 Кбит/сек
Аудио 2: AC3, 6 channels, 48000Hz, 384 Кбит/сек

Скриншоты

MI

GeneralID : 1 (0x1)Complete name : H:\ВЫКЛАДКА\Сергей Юрский. Я пришел в кино как клоун (2015, Документальный, HDTV 1080i) (MYDIMKA).tsFormat : MPEG-TSFile size : 3.53 GiBDuration : 51mn 50sOverall bit rate mode : VariableOverall bit rate : 9 753 Kbps
VideoID : 1603 (0x643)Menu ID : 603 (0x25B)Format : AVCFormat/Info : Advanced Video CodecFormat profile : High@L4.0Format settings, CABAC : YesFormat settings, ReFrames : 3 framesCodec ID : 27Duration : 51mn 49sBit rate : 8 689 KbpsWidth : 1 920 pixelsHeight : 1 080 pixelsDisplay aspect ratio : 16:9Frame rate : 25.000 fpsStandard : ComponentColor space : YUVChroma subsampling : 4:2:0Bit depth : 8 bitsScan type : InterlacedScan order : Top Field FirstBits/(Pixel*Frame) : 0.168Stream size : 3.15 GiB (89%)Color primaries : BT.709Transfer characteristics : BT.709Matrix coefficients : BT.709
Audio #1ID : 2603 (0xA2B)Menu ID : 603 (0x25B)Format : AC-3Format/Info : Audio Coding 3Mode extension : CM (complete main)Format settings, Endianness : BigCodec ID : 6Duration : 51mn 50sBit rate mode : ConstantBit rate : 384 KbpsChannel(s) : 6 channelsChannel positions : Front: L C R, Side: L R, LFESampling rate : 48.0 KHzBit depth : 16 bitsCompression mode : LossyDelay relative to video : -120msStream size : 142 MiB (4%)Language : Russian
Audio #2ID : 2604 (0xA2C)Menu ID : 603 (0x25B)Format : MPEG AudioFormat version : Version 1Format profile : Layer 2Codec ID : 3Duration : 51mn 50sBit rate mode : ConstantBit rate : 192 KbpsChannel(s) : 2 channelsSampling rate : 48.0 KHzCompression mode : LossyDelay relative to video : -120msStream size : 71.2 MiB (2%)Language : Russian
[Профиль] [ЛС]
Показать сообщения:    

Текущее время: Сегодня 02:27

Часовой пояс: GMT



Вы не можете начинать темы
Вы не можете отвечать на сообщения
Вы не можете редактировать свои сообщения
Вы не можете удалять свои сообщения
Вы не можете голосовать в опросах
Вы не можете прикреплять файлы к сообщениям
Вы не можете скачивать файлы