(Шансон) Сергей Наговицын - Серия «SUPER HITS COLLECTION. 20 лучших песен» - 2013, FLAC (image+.cue), lossless

 
Автор Сообщение

sergej644 ®

Пол:

Стаж: 4 года 11 месяцев

Сообщений: 6041

Откуда: Soviet Union



Награды: Нет

Торрент-статистика

Создавать темы 31-Май-2015 13:12

[Цитировать]

Сергей Наговицын / Серия «SUPER HITS COLLECTION. 20 лучших песен»
Жанр: Шансон
Страна-производитель диска: Россия
Год издания: 2013
Издатель (лейбл): Классик Компани
Номер по каталогу: CC CD 01/13
Страна: Россия
Аудиокодек: FLAC (*.flac)
Тип рипа: image+.cue
Битрейт аудио: lossless
Продолжительность: 01:19:00
Источник (релизер): STOJAK
Наличие сканов в содержимом раздачи: да (PNG)
Треклист:
01. "Говорила мне мать (Музыка и слова Сергей Наговицын)"
02. "Без проституток и воров (Музыка и слова Сергей Наговицын)"
03. "Этап (Музыка и слова Сергей Наговицын)"
04. "Сизый (Музыка и слова Сергей Наговицын)"
05. "Прохор Митрич (Музыка и слова Сергей Наговицын)"
06. "Потерянный край (Музыка и слова Сергей Наговицын)"
07. "Озоновый слой (Музыка и слова Сергей Наговицын)"
08. "Городские встречи (Музыка и слова Сергей Наговицын)"
09. "Любимой посвящается (Музыка и слова Сергей Наговицын)"
10. "Девочка - проказница (Музыка и слова Сергей Наговицын)"
11. "Воля (Музыка и слова Сергей Наговицын)"
12. "Там на ёлках (Музыка и слова Сергей Наговицын)"
13. "Соседка (Музыка и слова Сергей Наговицын)"
14. "Приговор (Музыка и слова Сергей Наговицын)"
15. "Кабакам - кабацкий дым (Музыка и слова Сергей Наговицын)"
16. "Дори - Дори (Музыка и слова Сергей Наговицын)"
17. "До свидания, кореша (Музыка и слова Сергей Наговицын)"
18. "Пропала Родина (Музыка и слова Сергей Наговицын)"
19. "Одноклассники (Музыка и слова Сергей Наговицын)"
20. "Прости, Иисус (Музыка и слова Сергей Наговицын)"

Отчёт EAC об извлечении, выполненном 9. марта 2013, 22:23

Exact Audio Copy V1.0 beta 2 from 29. April 2011
Отчёт EAC об извлечении, выполненном 9. марта 2013, 22:23
Сергей Наговицын / Серия «SUPER HITS COLLECTION. 20 лучших песен»
Дисковод: COMBO IDE5216CO Adapter: 0 ID: 0
Режим чтения : ДостоверностьИспользование точного потока : ДаОтключение кэша аудио : ДаИспользование указателей C2 : Нет
Коррекция смещения при чтении : 6Способность читать области Lead-in и Lead-out : НетЗаполнение пропущенных сэмплов тишиной : ДаУдаление блоков с тишиной в начале и конце : НетПри вычислениях CRC использовались нулевые сэмплы : ДаИнтерфейс : Встроенный Win32-интерфейс для Win NT/2000
Выходной формат : Внутренние WAV-операцииФормат сэмплов : 44.100 Гц; 16 бит; стерео
TOC извлечённого CD
Трек | Старт | Длительность | Начальный сектор | Конечный сектор --------------------------------------------------------------------- 1 | 0:00.00 | 3:58.28 | 0 | 17877 2 | 3:58.28 | 3:49.04 | 17878 | 35056 3 | 7:47.32 | 3:57.38 | 35057 | 52869 4 | 11:44.70 | 3:59.69 | 52870 | 70863 5 | 15:44.64 | 3:50.54 | 70864 | 88167 6 | 19:35.43 | 4:20.00 | 88168 | 107667 7 | 23:55.43 | 4:52.58 | 107668 | 129625 8 | 28:48.26 | 3:48.26 | 129626 | 146751 9 | 32:36.52 | 4:55.62 | 146752 | 168938 10 | 37:32.39 | 4:00.62 | 168939 | 187000 11 | 41:33.26 | 3:58.48 | 187001 | 204898 12 | 45:31.74 | 3:42.21 | 204899 | 221569 13 | 49:14.20 | 3:22.68 | 221570 | 236787 14 | 52:37.13 | 4:57.31 | 236788 | 259093 15 | 57:34.44 | 4:04.43 | 259094 | 277436 16 | 61:39.12 | 3:31.08 | 277437 | 293269 17 | 65:10.20 | 4:50.04 | 293270 | 315023 18 | 70:00.24 | 2:29.49 | 315024 | 326247 19 | 72:29.73 | 2:45.39 | 326248 | 338661 20 | 75:15.37 | 3:44.02 | 338662 | 355463
Характеристики диапазона извлечения и сообщения об ошибках
Выбранный диапазон
Имя файла E:\ШАНСОН\SCHANSON [SBORNIKI] LOSSLESS\СЕРИЯ «SUPER HITS COLLECTION» (с) 2012-2014 [20CD]\[2013] НАГОВИЦЫН СЕРГЕЙ «SUPER HITS COLLECTION. 20 лучших песен»\Сергей Наговицын - Серия «SUPER HITS COLLECTION. 20 лучших песен».wav
Пиковый уровень 99.9 % Скорость извлечения 2.3 X Качество диапазона 99.9 % CRC теста EDF2A086 CRC копии EDF2A086 Копирование... OK
Ошибок не произошло
AccurateRip: сводка
Трек 1 отсутствует в базе данныхТрек 2 отсутствует в базе данныхТрек 3 отсутствует в базе данныхТрек 4 отсутствует в базе данныхТрек 5 отсутствует в базе данныхТрек 6 отсутствует в базе данныхТрек 7 отсутствует в базе данныхТрек 8 отсутствует в базе данныхТрек 9 отсутствует в базе данныхТрек 10 отсутствует в базе данныхТрек 11 отсутствует в базе данныхТрек 12 отсутствует в базе данныхТрек 13 отсутствует в базе данныхТрек 14 отсутствует в базе данныхТрек 15 отсутствует в базе данныхТрек 16 отсутствует в базе данныхТрек 17 отсутствует в базе данныхТрек 18 отсутствует в базе данныхТрек 19 отсутствует в базе данныхТрек 20 отсутствует в базе данных
Ни одного трека нет в базе AccurateRip
Конец отчёта
==== Контрольная сумма отчёта 38EC0350E9CA9468AB77D4B62E20C1C7815D4C92A4675D113E82B730434A211D ====

Содержание индексной карты (.CUE)

REM GENRE ChansonREM DATE 2013REM DISCID 27128314REM COMMENT "ExactAudioCopy v1.0b2"PERFORMER "Сергей Наговицын"TITLE "Серия «SUPER HITS COLLECTION. 20 лучших песен»"FILE "Сергей Наговицын - Серия «SUPER HITS COLLECTION. 20 лучших песен».flac" WAVE TRACK 01 AUDIO TITLE "Говорила мне мать (Музыка и слова Сергей Наговицын)" PERFORMER "Сергей Наговицын" INDEX 01 00:00:00 TRACK 02 AUDIO TITLE "Без проституток и воров (Музыка и слова Сергей Наговицын)" PERFORMER "Сергей Наговицын" INDEX 00 03:57:33 INDEX 01 03:58:28 TRACK 03 AUDIO TITLE "Этап (Музыка и слова Сергей Наговицын)" PERFORMER "Сергей Наговицын" INDEX 00 07:46:37 INDEX 01 07:47:32 TRACK 04 AUDIO TITLE "Сизый (Музыка и слова Сергей Наговицын)" PERFORMER "Сергей Наговицын" INDEX 00 11:44:00 INDEX 01 11:44:70 TRACK 05 AUDIO TITLE "Прохор Митрич (Музыка и слова Сергей Наговицын)" PERFORMER "Сергей Наговицын" INDEX 00 15:43:69 INDEX 01 15:44:64 TRACK 06 AUDIO TITLE "Потерянный край (Музыка и слова Сергей Наговицын)" PERFORMER "Сергей Наговицын" INDEX 00 19:34:48 INDEX 01 19:35:43 TRACK 07 AUDIO TITLE "Озоновый слой (Музыка и слова Сергей Наговицын)" PERFORMER "Сергей Наговицын" INDEX 00 23:54:48 INDEX 01 23:55:43 TRACK 08 AUDIO TITLE "Городские встречи (Музыка и слова Сергей Наговицын)" PERFORMER "Сергей Наговицын" INDEX 00 28:47:31 INDEX 01 28:48:26 TRACK 09 AUDIO TITLE "Любимой посвящается (Музыка и слова Сергей Наговицын)" PERFORMER "Сергей Наговицын" INDEX 00 32:35:57 INDEX 01 32:36:52 TRACK 10 AUDIO TITLE "Девочка - проказница (Музыка и слова Сергей Наговицын)" PERFORMER "Сергей Наговицын" INDEX 00 37:31:44 INDEX 01 37:32:39 TRACK 11 AUDIO TITLE "Воля (Музыка и слова Сергей Наговицын)" PERFORMER "Сергей Наговицын" INDEX 00 41:32:31 INDEX 01 41:33:26 TRACK 12 AUDIO TITLE "Там на ёлках (Музыка и слова Сергей Наговицын)" PERFORMER "Сергей Наговицын" INDEX 00 45:31:04 INDEX 01 45:31:74 TRACK 13 AUDIO TITLE "Соседка (Музыка и слова Сергей Наговицын)" PERFORMER "Сергей Наговицын" INDEX 00 49:13:25 INDEX 01 49:14:20 TRACK 14 AUDIO TITLE "Приговор (Музыка и слова Сергей Наговицын)" PERFORMER "Сергей Наговицын" INDEX 00 52:36:18 INDEX 01 52:37:13 TRACK 15 AUDIO TITLE "Кабакам - кабацкий дым (Музыка и слова Сергей Наговицын)" PERFORMER "Сергей Наговицын" INDEX 00 57:33:49 INDEX 01 57:34:44 TRACK 16 AUDIO TITLE "Дори - Дори (Музыка и слова Сергей Наговицын)" PERFORMER "Сергей Наговицын" INDEX 00 61:38:17 INDEX 01 61:39:12 TRACK 17 AUDIO TITLE "До свидания, кореша (Музыка и слова Сергей Наговицын)" PERFORMER "Сергей Наговицын" INDEX 00 65:09:25 INDEX 01 65:10:20 TRACK 18 AUDIO TITLE "Пропала Родина (Музыка и слова Сергей Наговицын)" PERFORMER "Сергей Наговицын" INDEX 00 69:59:29 INDEX 01 70:00:24 TRACK 19 AUDIO TITLE "Одноклассники (Музыка и слова Сергей Наговицын)" PERFORMER "Сергей Наговицын" INDEX 00 72:29:03 INDEX 01 72:29:73 TRACK 20 AUDIO TITLE "Прости, Иисус (Музыка и слова Сергей Наговицын)" PERFORMER "Сергей Наговицын" INDEX 00 75:14:43 INDEX 01 75:15:37

Лог проверки качества

AUDIOCHECKER v2.0 beta (build 457) - by Dester - opdester@freemail.hu~~~~~~~~~~~~~~~~~~~~~~~~~~~~~~~~~~-=== DO NOT EDIT THIS FILE! ===-
Path: ...\[2013] НАГОВИЦЫН СЕРГЕЙ «SUPER HITS COLLECTION. 20 лучших песен»
1 -=- Сергей Наговицын - Серия «SUPER HITS COLLECTION. 20 лучших песен».wav -=- CDDA (100%)
195098324

COVERS CD

[Профиль] [ЛС]

Создавать темы 13-Авг-2015 11:04 (спустя 2 месяца 12 дней)

Топик был перенесен из форума Шансон и авторская песня в форум Сhanson
sergej644
 
Кто просматривает тему:

Показать сообщения:    

Текущее время: Сегодня 14:51

Часовой пояс: GMT



Вы не можете начинать темы
Вы не можете отвечать на сообщения
Вы не можете редактировать свои сообщения
Вы не можете удалять свои сообщения
Вы не можете голосовать в опросах
Вы не можете прикреплять файлы к сообщениям
Вы не можете скачивать файлы